Купель дьявола [1-4 серии из 4] (2018) WEB-DL 720p от Files-x

Reply to topic
 
Author Message

Nicodem ®

Gender: Male

Longevity: 2 years 2 months

Posts: 714

Post 03-Dec-2018 17:05

[Quote]

Купель дьявола
Год выпуска: 2018
Жанр: Детектив, мистика, экранизация
Выпущено: Россия, Продюсерский центр "Кедр"
Режиссер: Александра Бутько
В ролях: Полина Толстун, Кирилл Жандаров, Евгения Игумнова, Илья Носков, Людмила Чурсина, Борис Хвошнянский, Анвар Либабов, Леонид Вахонин, Александр Большаков, Владимир Крылов, Алексей Фролов (II), Егор Лесников, Екатерина Рудакова, Леонид Королёв, Алексей Удальцов, Владимир Норенко, Наталья Щербакова, Юлия Зоркина, Мария Жильченко, Валерия Варченко, Яков Петров, Мария Минакова
О фильме: Пять столетий назад в маленький голландский городок пришел талантливый художник. Не осталось жителя, который не хотел бы получить портрет, написанный его рукой. Вскоре город захлестнула череда необъяснимых смертей, и самым необычным было то, что все погибшие были героями картин живописца. Вершиной его творчества стал алтарный триптих "Страшный суд". Полотно оказалось пророческим - вскоре город и его жителей поглотило небывалое наводнение. В руки владелицы небольшой арт-галереи в Санкт-Петербурге Кати Соловьевой неожиданно попадает редкое полотно. Благодаря другу Лаврухе она выясняет, что оно принадлежит кисти того самого Лукаса ван Остреа. Особенно интересно, что рыжеволосая красавица с картины имеет удивительное сходство с самой героиней. Вскоре Катя узнает, что "картина убивает" и все ее предыдущие владельцы погибли. В это верится с трудом, но ровно до тех пор, пока беда не приходит в дом ее подруги Жеки. Разобраться, откуда тянется шлейф мистических смертей, предстоит самой Катерине и настойчивому капитану полиции Кириллу Маричу...

Качество: WEB-DL 720p
Видео: MPEG-4 AVC, ~ 2569 Кбит/с, 1280x720, 25 Кадр/с
Аудио: AC3, 2 ch, 192 Кбит/с
Продолжительность: 4 x ~ 00:44:00
Перевод: Не требуется
Cубтитры: нет

Скриншоты



MediaInfo

General
Unique ID : 309460467664307519122626824079368201994 (0xE8CFEB0A6DB44E9F7C7A407E8A6F270A)
Complete name : C:\Users\DOM\Desktop\ВИДЕО\Купель дьявола.(2018).WEB-DL (720p).by.Nicodem.Files-x\01.Купель дьявола.(2018).WEB-DL (720p).by.Nicodem.Files-x.mkv
Format : Matroska
File size : 873 MiB
Duration : 44mn 13s
Overall bit rate : 2 759 Kbps
Writing application : Lavf56.36.100
Writing library : Lavf56.36.100
Video
ID : 1
Format : AVC
Format/Info : Advanced Video Codec
Format profile : High@L4.0
Format settings, CABAC : Yes
Format settings, ReFrames : 4 frames
Format settings, GOP : M=1, N=50
Codec ID : V_MPEG4/ISO/AVC
Duration : 44mn 13s
Bit rate : 2 569 Kbps
Width : 1 280 pixels
Height : 720 pixels
Display aspect ratio : 16:9
Frame rate mode : Variable
Frame rate : 25.000 fps
Color space : YUV
Chroma subsampling : 4:2:0
Bit depth : 8 bits
Scan type : Progressive
Bits/(Pixel*Frame) : 0.112
Stream size : 795 MiB (91%)
Writing library : x264 core 142
Encoding settings : cabac=1 / ref=3 / deblock=1:0:0 / analyse=0x3:0x113 / me=hex / subme=7 / psy=1 / psy_rd=1.00:0.00 / mixed_ref=1 / me_range=16 / chroma_me=1 / trellis=1 / 8x8dct=1 / cqm=0 / deadzone=21,11 / fast_pskip=1 / chroma_qp_offset=-2 / threads=36 / lookahead_threads=5 / sliced_threads=0 / nr=0 / decimate=1 / interlaced=0 / bluray_compat=0 / constrained_intra=0 / bframes=6 / b_pyramid=2 / b_adapt=1 / b_bias=0 / direct=1 / weightb=1 / open_gop=0 / weightp=2 / keyint=50 / keyint_min=26 / scenecut=0 / intra_refresh=0 / rc_lookahead=40 / rc=2pass / mbtree=1 / bitrate=2569 / ratetol=1.0 / qcomp=0.60 / qpmin=0 / qpmax=69 / qpstep=4 / cplxblur=20.0 / qblur=0.5 / vbv_maxrate=3854 / vbv_bufsize=10279 / nal_hrd=none / filler=0 / ip_ratio=1.40 / aq=1:1.00
Language : English
Audio
ID : 2
Format : AC-3
Format/Info : Audio Coding 3
Mode extension : CM (complete main)
Codec ID : A_AC3
Duration : 44mn 13s
Bit rate mode : Constant
Bit rate : 192 Kbps
Channel(s) : 2 channels
Channel positions : Front: L R
Sampling rate : 48.0 KHz
Bit depth : 16 bits
Compression mode : Lossy
Delay relative to video : 1mn 5s
Stream size : 60.7 MiB (7%)
Language : English / un
Релиз от:

Release was prepared by RG Files-x

[Profile] [PM]
Display posts:    
Reply to topic

Current time is: 19-Jan 04:44

All times are UTC + 3



You cannot post new topics in this forum
You cannot reply to topics in this forum
You cannot edit your posts in this forum
You cannot delete your posts in this forum
You cannot vote in polls in this forum
You cannot attach files in this forum
You cannot download files in this forum