Сладкая жизнь [1-3 сезоны: 1-21 серии из 21] (2014-2016) WEBRip 720p

Reply to topic
 
Author Message

Мухич ®

Gender: Male

Longevity: 3 years

Posts: 43

Post 03-Dec-2018 19:30

[Quote]

Сладкая жизнь
Год выпуска: 2014-2016
Жанр: Комедия
Выпущено: Россия, Good Story Media по заказу ТНТ
Режиссер: Андрей Джунковский, Давид Кочаров
В ролях: Марта Носова, Никита Панфилов, Анастасия Меськова, Антон Денисенко, Мария Шумакова, Роман Маякин, Лукерья Ильяшенко, Анастасия Клюева, Николь Спиридонова, Павел Слепухов, Антон Батырев, Артур Бичахчян, Эдуард Мацаберидзе, Анжелика Морозова
О фильме: В центре истории «Сладкой жизни» шестеро успешных тридцатилетних москвичей, чья жизнь меняется с появлением главной героини Саши — матери-одиночки из Перми, зарабатывающей на жизнь в ночном клубе танцами go-go. После неприятного инцидента на дне рождения местного мажора Саша отправляет ребенка к бабушке, а сама едет в гости к московской подруге Лере. Когда-то они вместе танцевали в кордебалете Большого театра. Шесть часовых серий «Сладкой жизни» укладываются всего в 8 дней. Но за это время жизнь каждого из героев сериала повернется на 180 градусов. И каждый из участников событий успеет показать себя с самой неожиданной стороны: в диапазоне от абсолютного свинства до настоящего благородства».

Качество: WEBRip 720p
Видео: MPEG-4 AVC, ~ 3066 Кбит/с, 1280x720
Аудио: AC3, 2 ch, 192 Кбит/с
Продолжительность: 21 x ~ 00:44:00
Перевод: Не требуется
Субтитры: Нет

Скриншоты


MediaInfo

Общее
Уникальный идентификатор : 224715151028660675400777990904428025632 (0xA90E90575149AA1CADD1C770C90AD720)
Полное имя : F:\Фильмы торренты\Sladkaya.zhizn.01-02.sezony.2014-2015.WEB-DL.(720p).MediaClub\Sladkaya.zhizn-01.(01.seriya).2014.WEB-DL.(720p).MediaClub.mkv
Формат : Matroska
Версия формата : Version 2
Размер файла : 1,09 Гбайт
Продолжительность : 46 м.
Общий поток : 3325 Кбит/сек
Название фильма : Sladkaya.zhizn-01.(01.seriya).2014.WEB-DL.(720p).MediaClub
Дата кодирования : UTC 2015-05-25 19:58:00
Программа кодирования : mkvmerge v5.8.0 ('No Sleep / Pillow') built on Sep 2 2012 15:37:04
Библиотека кодирования : libebml v1.2.3 + libmatroska v1.3.0
Видео
Идентификатор : 1
Формат : AVC
Формат/Информация : Advanced Video Codec
Профиль формата : High@L4.0
Параметр CABAC формата : Да
Параметр ReFrames формата : 8 кадров
Идентификатор кодека : V_MPEG4/ISO/AVC
Продолжительность : 46 м.
Битрейт : 3066 Кбит/сек
Ширина : 1280 пикселей
Высота : 720 пикселей
Соотношение сторон : 16:9
Режим частоты кадров : Постоянный
Частота кадров : 25,000 кадров/сек
Цветовое пространство : YUV
Субдискретизация насыщенности : 4:2:0
Битовая глубина : 8 бит
Тип развёртки : Прогрессивная
Бит/(Пиксели*Кадры) : 0.133
Размер потока : 1,00 Гбайт (92%)
Библиотека кодирования : x264 core 142 r2455 021c0dc
Настройки программы : cabac=1 / ref=8 / deblock=1:-1:-1 / analyse=0x3:0x133 / me=umh / subme=9 / psy=1 / psy_rd=1.00:0.15 / mixed_ref=1 / me_range=16 / chroma_me=1 / trellis=2 / 8x8dct=1 / cqm=0 / deadzone=21,11 / fast_pskip=1 / chroma_qp_offset=-3 / threads=24 / lookahead_threads=2 / sliced_threads=0 / nr=0 / decimate=1 / interlaced=0 / bluray_compat=0 / constrained_intra=0 / bframes=3 / b_pyramid=2 / b_adapt=2 / b_bias=0 / direct=3 / weightb=1 / open_gop=0 / weightp=2 / keyint=100 / keyint_min=10 / scenecut=40 / intra_refresh=0 / rc_lookahead=60 / rc=crf / mbtree=1 / crf=17.0 / qcomp=0.60 / qpmin=0 / qpmax=69 / qpstep=4 / vbv_maxrate=3600 / vbv_bufsize=3600 / crf_max=0.0 / nal_hrd=none / filler=0 / ip_ratio=1.40 / aq=1:1.00
Default : Да
Forced : Да
Аудио
Идентификатор : 2
Формат : AC-3
Формат/Информация : Audio Coding 3
Расширение режима : CM (complete main)
Параметр Endianness формата : Big
Идентификатор кодека : A_AC3
Продолжительность : 46 м.
Вид битрейта : Постоянный
Битрейт : 192 Кбит/сек
Каналы : 2 канала
Расположение каналов : Front: L R
Частота : 44,1 КГц
Битовая глубина : 16 бит
Метод сжатия : С потерями
Размер потока : 64,2 Мбайт (6%)
Язык : Russian
Default : Да
Forced : Да
Релиз от:
[Profile] [PM]
Display posts:    
Reply to topic

Current time is: 07-Dec 18:06

All times are UTC + 3



You cannot post new topics in this forum
You cannot reply to topics in this forum
You cannot edit your posts in this forum
You cannot delete your posts in this forum
You cannot vote in polls in this forum
You cannot attach files in this forum
You cannot download files in this forum