Ольга [Сезон 3: Серия 1-16 из 16 + фильм о фильме] (2018) WEBRip 1080p

Reply to topic
 
Author Message

Мухич ®

Gender: Male

Longevity: 3 years

Posts: 43

Post 03-Dec-2018 23:09

[Quote]

Ольга
Год выпуска: 2018
Жанр: Комедия
Выпущено: Россия
Режиссер: Алексей Нужный, Игорь Волошин, Антон Борматов
В ролях: Яна Троянова, Василий Кортуков, Алина Алексеева, Ксения Суркова, Сергей Романович, Максим Костромыкин, Гоша Куценко, Фархад Гусейнов, Борис Дергачев, Александр Шам, Александр Никольский, Александр Силаев.
О фильме: Третий сезон «Ольги» отличает повышенная событийность: в каждой серии сюжет может менять ход три-четыре раза, так что не совсем понятно, в какой тупик на этот раз придут герои. И каким образом из него вообще будут выбераться. Юмор имеет терапевтический эффект, ведь относиться всерьез к такому валу проблем попросту вредно для организма. В новых сериях Ольга и компания, как в сказке про репку, продолжат тащить друг друга из болота обыденности и безнадеги, в которое иногда заводит героев необычайно смешная и по-своему счастливая жизнь.

Качество: WEBRip 1080p
Видео: MPEG-4 AVC, ~ 5000 Кбит/с, 1920x1080
Аудио: AC3, 2 ch, 192 Кбит/с
Продолжительность: 17 x ~00:25:00
Перевод: Не требуется
Cубтитры: нет

Скриншоты


MediaInfo

Общее
Уникальный идентификатор : 226823327252495121986178551326188206408 (0xAAA495742FB2C553B623A4E193677948)
Полное имя : C:\Olga.s03.2018.WEB-DL.(1080p).Getty\Olga.s03e01.2018.WEB-DL.(1080p).Getty.mkv
Формат : Matroska
Версия формата : Version 4
Размер файла : 832 Мбайт
Продолжительность : 22 м. 32 с.
Режим общего битрейта : Постоянный
Общий поток : 5162 Кбит/сек
Название фильма : Olga.s03e01.2018.WEB-DL.(1080p).Getty
Дата кодирования : UTC 2018-11-06 14:04:03
Программа кодирования : mkvmerge v7.8.0 ('River Man') 32bit built on Mar 27 2015 16:18:02
Библиотека кодирования : libebml v1.3.1 + libmatroska v1.4.2
Видео
Идентификатор : 1
Формат : AVC
Формат/Информация : Advanced Video Codec
Профиль формата : Baseline@L4
Настройки формата : 4 Ref Frames
Параметр CABAC формата : Нет
Параметр RefFrames формата : 4 кадра
Идентификатор кодека : V_MPEG4/ISO/AVC
Продолжительность : 22 м. 32 с.
Вид битрейта : Постоянный
Битрейт : 5000 Кбит/сек
Ширина : 1920 пикселей
Высота : 1080 пикселей
Соотношение сторон : 16:9
Режим частоты кадров : Постоянный
Частота кадров : 25,000 кадров/сек
Стандарт вещания : PAL
Цветовое пространство : YUV
Субдискретизация насыщенности : 4:2:0
Битовая глубина : 8 бит
Тип развёртки : Прогрессивная
Бит/(Пиксели*Кадры) : 0.096
Размер потока : 784 Мбайт (94%)
Default : Да
Forced : Нет
Цветовой диапазон : Limited
Основные цвета : BT.709
Характеристики трансфера : BT.709
Коэффициенты матрицы : BT.709
Аудио
Идентификатор : 2
Формат : AC-3
Формат/Информация : Audio Coding 3
Коммерческое название : Dolby Digital
Идентификатор кодека : A_AC3
Продолжительность : 22 м. 32 с.
Вид битрейта : Постоянный
Битрейт : 192 Кбит/сек
Каналы : 2 канала
Channel layout : L R
Частота : 48,0 КГц
Частота кадров : 31,250 кадров/сек (1536 SPF)
Битовая глубина : 16 бит
Метод сжатия : С потерями
Размер потока : 30,9 Мбайт (4%)
ServiceKind/String : Complete Main
Default : Да
Forced : Нет
Релиз от: Автор релиза: forunzak
[Profile] [PM]
Display posts:    
Reply to topic

Current time is: 07-Dec 17:41

All times are UTC + 3



You cannot post new topics in this forum
You cannot reply to topics in this forum
You cannot edit your posts in this forum
You cannot delete your posts in this forum
You cannot vote in polls in this forum
You cannot attach files in this forum
You cannot download files in this forum