Ангелина [1-16 серии из 16] (2018) WEBRip от Files-x

Reply to topic
 
Author Message

Nicodem ®

Gender: Male

Longevity: 3 years

Posts: 1027

Post 04-Dec-2018 00:04

[Quote]

Ангелина
Год выпуска: 2018
Жанр: Драма
Выпущено: Россия, Украина, Filmstream, Vileton production
Режиссер: Роман Барабаш
В ролях: Мария Куликова, Виталий Кудрявцев, Татьяна Колганова, Александр Арсентьев, Александр Яцко, Леонид Громов, Анна Сагайдачная, Сергей Козлов (VI), Виктория Левченко (III), Олег Загородний, Мария Трепикова, Анастасия Цымбалару, Владислав Писаренко, Олег Щербина (II), Дарья Легейда, Полина Василина, Юлия Шугар, Влад Никитюк, Юрий Фелипенко, Анна Кузина, Галина Корнеева, Елена Бондарева-Репина, Оксана Архангельская, Татьяна Ружавская, Владислав Мамчур, Борислав Борисенко, Елена Колесниченко, Игорь Рубашкин, Наталия Бабенко
О фильме: Юная Ангелина унаследовала от бабки-травницы секреты народной медицины и ее обширную клиентуру. Ангелине по душе семейное занятие, которому она посвящает все свое время, несмотря на то, что жених Павел Коростылев уговаривает девушку бросить знахарство ради их общего будущего. Упрямство Ангелины и интриги ее соперницы Инги Думановой, влюбленной в Павла, делают свое дело. Ангелина и Павел расстаются – и каждый из них в этом разрыве винит противоположную сторону. Зато на улице Инги наступает праздник – свадьба с Павлом не за горами. А вскоре у молодой пары рождаются мальчики-близнецы...
Качество: WEBRip
Видео: XviD, ~ 1636 Кбит/с, 720x400, 25 кадр/с
Аудио: AC3, 2 ch, 192 Кбит/с
Продолжительность: 16 x ~ 00:45:38
Перевод: Не требуется
Cубтитры: нет

Скриншоты



MediaInfo

General
Complete name : C:\Users\DOM\Desktop\ВИДЕО\Ангелина.(2018).WEBRip.by.Nicodem.Files-x\01.Ангелина.(2018).WEBRip.by.Nicodem.Files-x.avi
Format : AVI
Format/Info : Audio Video Interleave
File size : 600 MiB
Duration : 45mn 38s
Overall bit rate : 1 838 Kbps
Writing application : VirtualDubMod 1.5.10.3 | www.virtualdub-fr.org || (build 2550/release)
Writing library : VirtualDubMod build 2550/release
Video
ID : 0
Format : MPEG-4 Visual
Format profile : Advanced Simple@L5
Format settings, BVOP : 1
Format settings, QPel : No
Format settings, GMC : No warppoints
Format settings, Matrix : Custom
Codec ID : XVID
Codec ID/Hint : XviD
Duration : 45mn 38s
Bit rate : 1 636 Kbps
Width : 720 pixels
Height : 400 pixels
Display aspect ratio : 16:9
Frame rate : 25.000 fps
Color space : YUV
Chroma subsampling : 4:2:0
Bit depth : 8 bits
Scan type : Progressive
Compression mode : Lossy
Bits/(Pixel*Frame) : 0.227
Stream size : 534 MiB (89%)
Writing library : XviD 73
Audio
ID : 1
Format : AC-3
Format/Info : Audio Coding 3
Mode extension : CM (complete main)
Codec ID : 2000
Duration : 45mn 38s
Bit rate mode : Constant
Bit rate : 192 Kbps
Channel(s) : 2 channels
Channel positions : Front: L R
Sampling rate : 48.0 KHz
Bit depth : 16 bits
Compression mode : Lossy
Stream size : 62.7 MiB (10%)
Alignment : Split accross interleaves
Interleave, duration : 40 ms (1.00 video frame)
Interleave, preload duration : 500 ms

Раздача ведётся путём добавления новых серий

Внимание! Раздача ведётся путём добавления новых серий; при каждом добавлении создаётся новый торрент.
Чтобы начать докачку новой серии, пользователям необходимо сделать следующее:
1. Остановить скачивание;
2. Удалить старый торрент у себя из клиента (старые серии удалять не надо);
3. Скачать новый торрент и запустить его у себя в клиенте вместо старого, при этом указать клиенту путь в старую папку куда и должно происходить скачивание новых серий. Ваш клиент при этом должен произвести хеширование (проверку) старой папки и будет докачивать только те серии, которых у вас ещё нет. Старые серии при этом не удаляются, а продолжают раздаваться! Eсли вы уже удалили старые серии, то предотвратить повторную закачку старых серий можно, отжав галочку в соответствующих местах при запуске нового торрента.
Релиз от:

Release was prepared by RG Files-x

[Profile] [PM]
Display posts:    
Reply to topic

Current time is: 07-Dec 18:37

All times are UTC + 3



You cannot post new topics in this forum
You cannot reply to topics in this forum
You cannot edit your posts in this forum
You cannot delete your posts in this forum
You cannot vote in polls in this forum
You cannot attach files in this forum
You cannot download files in this forum