Пусть трупы позагорают / Laissez bronzer les cadavres (2017) BDRip 1080p

Ответить на тему
 
Автор Сообщение

Monk ®

Пол: Мужской

Стаж: 3 месяца 2 дня

Сообщений: 3233

Откуда: Казань

Создавать темы 19-Ноя-2018 10:13

[Цитировать]

Пусть трупы позагорают / Laissez bronzer les cadavres Год выпуска: 2017
Жанр: Триллер
Выпущено: Франция, Бельгия, Anonymes Films, Tobina Film, Canal+
Режиссер: Элен Катте, Бруно Форцани
В ролях: Элина Лёвенсон, Стефан Феррара, Берни Бонвуазен, Микеланджело Марчезе, Марк Барбе, Херв Сонь, Пьер Ниссе, Дорилия Калмел
О фильме: Где-то на Лазурном берегу в старом замке обосновалась компания грабителей. Удачно похитив 250 кг золота и скрываясь на автомобиле, по пути они подбирают двух женщин и мальчика. Оказывается, что одна из них — жена писателя, живущего в тех же развалинах. А когда к ним всё же заявляется полиция, начинается затяжная перестрелка, живыми из которой выберутся немногие.

Качество: BDRip 1080p
Видео: MPEG-4 AVC, 18600 Кбит/с, 1920x816
Аудио: Русский, английский (DTS, 6 ch, 1509 Кбит/с), русский (AC3, 6 ch, 448 Кбит/с)
Продолжительность: 01:32:05
Перевод: Авторский [BadBajo]
Субтитры: Английские

Скриншоты



MediaInfo

Общее
Уникальный идентификатор : 297032613833224049542433975479232417274 (0xDF76668A0EE930E6DEAC10793338CDFA)
Полное имя : D:\Let the Corpses Tan 2017 1080p BluRay DTS x264_rus_BadBajo.mkv
Формат : Matroska
Версия формата : Version 4 / Version 2
Размер файла : 14,2 Гбайт
Продолжительность : 1 ч. 32 м.
Общий поток : 22,0 Мбит/сек
Название фильма : Let the Corpses Tan 2017 1080p BluRay DTS x264_rus_BadBajo
Дата кодирования : UTC 2018-07-28 23:21:35
Программа кодирования : mkvmerge v20.0.0 ('I Am The Sun') 64-bit
Библиотека кодирования : libebml v1.3.5 + libmatroska v1.4.8
Обложка : Yes
Attachments : cover.jpg
Видео
Идентификатор : 1
Формат : AVC
Формат/Информация : Advanced Video Codec
Профиль формата : High@L4.1
Настройки формата : CABAC / 5 Ref Frames
Параметр CABAC формата : Да
Параметр RefFrames формата : 5 кадров
Идентификатор кодека : V_MPEG4/ISO/AVC
Продолжительность : 1 ч. 32 м.
Битрейт : 18,6 Мбит/сек
Ширина : 1920 пикселей
Высота : 816 пикселей
Соотношение сторон : 2,35:1
Режим частоты кадров : Постоянный
Частота кадров : 23,976 (24000/1001) кадра/сек
Цветовое пространство : YUV
Субдискретизация насыщенности : 4:2:0
Битовая глубина : 8 бит
Тип развёртки : Прогрессивная
Бит/(Пиксели*Кадры) : 0.495
Размер потока : 11,7 Гбайт (82%)
Заголовок : LoRD
Библиотека кодирования : x264 core 155 r2901 7d0ff22
Настройки программы : cabac=1 / ref=5 / deblock=1:-3:-3 / analyse=0x3:0x133 / me=umh / subme=10 / psy=1 / psy_rd=1.00:0.00 / mixed_ref=1 / me_range=32 / chroma_me=1 / trellis=2 / 8x8dct=1 / cqm=0 / deadzone=21,11 / fast_pskip=0 / chroma_qp_offset=-2 / threads=12 / lookahead_threads=2 / sliced_threads=0 / nr=0 / decimate=0 / interlaced=0 / bluray_compat=0 / constrained_intra=0 / bframes=8 / b_pyramid=2 / b_adapt=2 / b_bias=0 / direct=3 / weightb=1 / open_gop=0 / weightp=2 / keyint=250 / keyint_min=23 / scenecut=40 / intra_refresh=0 / rc_lookahead=60 / rc=2pass / mbtree=0 / bitrate=18590 / ratetol=1.0 / qcomp=0.60 / qpmin=0 / qpmax=69 / qpstep=4 / cplxblur=20.0 / qblur=0.5 / vbv_maxrate=50000 / vbv_bufsize=62500 / nal_hrd=none / filler=0 / ip_ratio=1.30 / pb_ratio=1.20 / aq=3:0.80
Язык : French
Default : Да
Forced : Нет
Аудио #1
Идентификатор : 2
Формат : DTS
Формат/Информация : Digital Theater Systems
Идентификатор кодека : A_DTS
Продолжительность : 1 ч. 32 м.
Вид битрейта : Постоянный
Битрейт : 1510 Кбит/сек
Каналы : 6 каналов
Расположение каналов : Front: L C R, Side: L R, LFE
Частота : 48,0 КГц
Частота кадров : 93,750 кадра/сек (512 SPF)
Битовая глубина : 24 бит
Метод сжатия : С потерями
Размер потока : 995 Мбайт (7%)
Заголовок : Let the Corpses Tan 2017 DTS_rus_BadBajo
Язык : Russian
Default : Да
Forced : Да
Аудио #2
Идентификатор : 3
Формат : AC-3
Формат/Информация : Audio Coding 3
Идентификатор кодека : A_AC3
Продолжительность : 1 ч. 32 м.
Вид битрейта : Постоянный
Битрейт : 448 Кбит/сек
Каналы : 6 каналов
Расположение каналов : Front: L C R, Side: L R, LFE
Частота : 48,0 КГц
Частота кадров : 31,250 кадров/сек (1536 SPF)
Битовая глубина : 16 бит
Метод сжатия : С потерями
Размер потока : 295 Мбайт (2%)
Заголовок : Let the Corpses Tan 2017 1080p BluRay AC3_rus_BadBajo
Язык : Russian
ServiceKind/String : Complete Main
Default : Нет
Forced : Нет
Аудио #3
Идентификатор : 4
Формат : DTS
Формат/Информация : Digital Theater Systems
Идентификатор кодека : A_DTS
Продолжительность : 1 ч. 32 м.
Вид битрейта : Постоянный
Битрейт : 1509 Кбит/сек
Каналы : 6 каналов
Расположение каналов : Front: L C R, Side: L R, LFE
Частота : 48,0 КГц
Частота кадров : 93,750 кадра/сек (512 SPF)
Битовая глубина : 24 бит
Метод сжатия : С потерями
Размер потока : 994 Мбайт (7%)
Заголовок : DTS
Язык : French
Default : Нет
Forced : Нет
Текст
Идентификатор : 5
Формат : UTF-8
Идентификатор кодека : S_TEXT/UTF8
Идентификатор кодека/Информация : UTF-8 Plain Text
Язык : English
Default : Да
Forced : Нет
Меню
00:00:00.000 : en:Chapter 01
00:07:06.134 : en:Chapter 02
00:09:22.395 : en:Chapter 03
00:12:12.398 : en:Chapter 04
00:16:00.584 : en:Chapter 05
00:23:31.701 : en:Chapter 06
00:28:08.645 : en:Chapter 07
00:36:24.807 : en:Chapter 08
00:45:05.285 : en:Chapter 09
00:52:11.044 : en:Chapter 10
00:57:55.263 : en:Chapter 11
01:06:55.219 : en:Chapter 12
01:10:16.754 : en:Chapter 13
01:16:25.247 : en:Chapter 14
01:24:48.833 : en:Chapter 15
01:28:25.133 : en:Chapter 16
[Профиль] [ЛС]
Показать сообщения:    
Ответить на тему

Текущее время: 17-Фев 11:41

Часовой пояс: UTC + 3



Вы не можете начинать темы
Вы не можете отвечать на сообщения
Вы не можете редактировать свои сообщения
Вы не можете удалять свои сообщения
Вы не можете голосовать в опросах
Вы не можете прикреплять файлы к сообщениям
Вы не можете скачивать файлы