Содержанки [1-2 сезоны: 1-12 серии из 16] (2019-2020) WEBRip от GeneralFilm

Reply to topic
 
Author Message

vsobbol ®

Gender: Male

Longevity: 1 year 3 months

Posts: 445

Location: Донецк

Post 30-Jan-2020 21:05

[Quote]

Содержанки
Год выпуска: 2019-2020
Жанр: Триллер, эротика
Выпущено: Россия, Старт, Yellow, Black & White
Режиссер: Константин Богомолов
В ролях: Ольга Сутулова, Дарья Мороз, Мария Фомина, Софья Заика, Сергей Бурунов, Владимир Мишуков, Александр Кузнецов (VI), Марина Зудина, Александр Збруев, Семён Штейнберг, Пётр Скворцов, Леонид Бичевин, Ирина Старшенбаум, Александра Ребенок, Сабина Ахмедова, Игорь Гордин, Роза Хайруллина, Сергей Чонишвили, Александра Ревенко, Ксения Собчак, Светлана Бондарчук, Вадим Верник
О фильме: Настоящее время. Москва. Город больших денег и страстей, великолепных женщин и состоятельных мужчин, светских раутов и опасных интриг. Здесь красивые девушки мечтают попасть в мир гламура, струящихся шелков и драгоценностей, а главная светская сваха города ловко пристраивает их в надежные руки. Сюда приезжает молодая амбициозная художница из провинции. Она мечтает о новой, лучшей жизни, но загадочное и жестокое происшествие изменит всё.
Качество: WEBRip
Видео: XviD build 73, 720x400 (16:9), 23.976, 25.000 fps, ~ 1400 Kbps (~ 0.200 bit/pixel)
Аудио: 48.0 kHz, AC3, 2/0 ch, 192 kbps
Продолжительность: 12 x ~ 00:45:00
Перевод / Озвучка: Не требуется [Русский]
Cубтитры: нет
Внимание! В сериале присутствуют сцены с обнаженной натурой и ненормативная лексика!

Скриншоты

MediaInfo

General
Complete name : D:\Razdachi\Soderzhanki.WEBRip.GeneralFilm\S01.E03.Soderzhanki.avi
Format : AVI
Format/Info : Audio Video Interleave
File size : 557 MiB
Duration : 43 min 46 s
Overall bit rate : 1 780 kb/s
Writing application : VirtualDubMod 1.5.10.3 | www.virtualdub-fr.org || (build 2550/release)
Writing library : VirtualDubMod build 2550/release
Video
ID : 0
Format : MPEG-4 Visual
Format profile : Advanced Simple@L5
Format settings : BVOP1 / Custom Matrix
Format settings, BVOP : 1
Format settings, QPel : No
Format settings, GMC : No warppoints
Format settings, Matrix : Custom
Codec ID : XVID
Codec ID/Hint : XviD
Duration : 43 min 46 s
Bit rate : 1 578 kb/s
Width : 720 pixels
Height : 400 pixels
Display aspect ratio : 16:9
Frame rate : 23.976 (24000/1001) FPS
Color space : YUV
Chroma subsampling : 4:2:0
Bit depth : 8 bits
Scan type : Progressive
Compression mode : Lossy
Bits/(Pixel*Frame) : 0.229
Stream size : 494 MiB (89%)
Writing library : XviD 73
Audio
ID : 1
Format : AC-3
Format/Info : Audio Coding 3
Commercial name : Dolby Digital
Codec ID : 2000
Duration : 43 min 46 s
Bit rate mode : Constant
Bit rate : 192 kb/s
Channel(s) : 2 channels
Channel layout : L R
Sampling rate : 48.0 kHz
Frame rate : 31.250 FPS (1536 SPF)
Compression mode : Lossy
Stream size : 60.1 MiB (11%)
Alignment : Split across interleaves
Interleave, duration : 42 ms (1.00 video frame)
Interleave, preload duratio : 500 ms
Service kind : Complete Main

Внимание! Раздача ведётся путём добавления новых серий

Раздача ведётся путём добавления новых серий, при каждом добавлении создаётся новый торрент. Чтобы начать докачку новой серии, пользователям необходимо сделать следующее:
- Остановить скачивание.
- Удалить старый торрент у себя из клиента (старые серии удалять не надо).
- Скачать новый торрент и запустить его у себя в клиенте вместо старого, при этом указать клиенту путь в старую папку куда и должно происходить скачивание новых серий.
Ваш клиент при этом должен произвести хеширование (проверку) старой папки (если не производит сам - помогите ему сделать это), и будет докачивать только те серии которых у вас ещё нет. Старые серии при этом не удаляются, а продолжают раздаваться!
Если вы уже удалили старые серии, то предотвратить повторную закачку старых серий можно, отжав галочку в соответствующих местах при запуске нового торрента. По возможности, желательно не удалять старые серии как можно дольше, чтобы релизер не столько продолжал раздавать старые серии, а смог сконцентрироваться на новых.
Релиз от:
[Profile] [PM]
Display posts:    
Reply to topic

Current time is: 24-Feb 02:04

All times are UTC + 3



You cannot post new topics in this forum
You cannot reply to topics in this forum
You cannot edit your posts in this forum
You cannot delete your posts in this forum
You cannot vote in polls in this forum
You cannot attach files in this forum
You cannot download files in this forum