Большие надежды [1-8 серии из 8] (2020) WEBRip от Files-x

Reply to topic
 
Author Message

bond74 ®

Gender: Male

Longevity: 1 year 10 months

Posts: 860

Post 11-Feb-2020 02:47

[Quote]

Большие надежды Год выпуска: 2020
Жанр: Мелодрама
Выпущено: Россия, Киностудия Маркес
Режиссер: Юлия Краснова
В ролях: Татьяна Бабенкова, Анфиса Черных, Елена Яковлева, Евгений Антропов, Леонид Громов, Алексей Демидов, Василий Симонов, Ян Цапник, Кирилл Жандаров, Даниил Белых, Артём Осипов, Кирилл Сафонов, Олег Гаас, Евгений Сахаров
О фильме: История любви и невосполнимых потерь на фоне жизни страны в последние тридцать лет. Юные Эра и Зина, окрыленные большими надеждами, наперекор советам родителей отправляются в город за своей мечтой. Они многое пройдут рука об руку, смогут по-настоящему подружиться, похоронят наивность и иллюзии, переживут взлеты и падения. И поймут, что главное в жизни – сохранить любовь, веру в людей и надежду на лучшее, несмотря ни на что.
Качество: WEBRip
Видео: XviD, ~ 1600 Кбит/с, 720x400, 25 кадр/с
Аудио: AC3, 2 ch, 192 Кбит/с
Продолжительность: 8 x ~ 00:51:00
Перевод: Не требуется
Субтитры: нет

Скриншоты

MediaInfo

General
Complete name : H:fiiles xБольшие надежды.2020.WEB-DLRip.Files-x2. Большие надежды.2020.WEB-DLRip.Files-x .avi
Format : AVI
Format/Info : Audio Video Interleave
File size : 649 MiB
Duration : 50mn 21s
Overall bit rate : 1 802 Kbps
Writing application : VirtualDubMod 1.5.10.3 | www.virtualdub-fr.org || (build 2550/release)
Writing library : VirtualDubMod build 2550/release
Video
ID : 0
Format : MPEG-4 Visual
Format profile : Advanced Simple@L5
Format settings, BVOP : 1
Format settings, QPel : No
Format settings, GMC : No warppoints
Format settings, Matrix : Custom
Codec ID : XVID
Codec ID/Hint : XviD
Duration : 50mn 21s
Bit rate : 1 600 Kbps
Width : 720 pixels
Height : 400 pixels
Display aspect ratio : 16:9
Frame rate : 25.000 fps
Color space : YUV
Chroma subsampling : 4:2:0
Bit depth : 8 bits
Scan type : Progressive
Compression mode : Lossy
Bits/(Pixel*Frame) : 0.222
Stream size : 576 MiB (89%)
Writing library : XviD 73
Audio
ID : 1
Format : AC-3
Format/Info : Audio Coding 3
Mode extension : CM (complete main)
Codec ID : 2000
Duration : 50mn 21s
Bit rate mode : Constant
Bit rate : 192 Kbps
Channel(s) : 2 channels
Channel positions : Front: L R
Sampling rate : 48.0 KHz
Bit depth : 16 bits
Compression mode : Lossy
Stream size : 69.1 MiB (11%)
Alignment : Split accross interleaves
Interleave, duration : 40 ms (1.00 video frame)
Interleave, preload duration : 500 ms

Раздача ведётся путём добавления новых серий

Внимание! Раздача ведётся путём добавления новых серий; при каждом добавлении создаётся новый торрент.
Чтобы начать докачку новой серии, пользователям необходимо сделать следующее:
1. Остановить скачивание;
2. Удалить старый торрент у себя из клиента (старые серии удалять не надо);
3. Скачать новый торрент и запустить его у себя в клиенте вместо старого, при этом указать клиенту путь в старую папку куда и должно происходить скачивание новых серий. Ваш клиент при этом должен произвести хеширование (проверку) старой папки и будет докачивать только те серии, которых у вас ещё нет. Старые серии при этом не удаляются, а продолжают раздаваться! Eсли вы уже удалили старые серии, то предотвратить повторную закачку старых серий можно, отжав галочку в соответствующих местах при запуске нового торрента.
Релиз от:

Release was prepared by RG Files-x

[Profile] [PM]
Display posts:    
Reply to topic

Current time is: 21-Sep 18:38

All times are UTC + 3



You cannot post new topics in this forum
You cannot reply to topics in this forum
You cannot edit your posts in this forum
You cannot delete your posts in this forum
You cannot vote in polls in this forum
You cannot attach files in this forum
You cannot download files in this forum