Петрович [1-2 серии из 2] (2016) HDTVRip от GeneralFilm | КПК

Reply to topic
 
Author Message

GORGIK ®

Gender: Male

Longevity: 1 year 10 months

Posts: 331

Location: СССР

Post 14-Feb-2020 09:18

[Quote]

Петрович Год выпуска: 2016
Жанр: Криминал
Выпущено: Россия, ООО "Маурис Фильм"
Режиссер: Всеволод Аравин
В ролях: Игорь Бочкин, Юрий Беляев, Анна Легчилова, Артур Сопельник, Михаил Васильев, Наталья Корольская, Алексей Манцыгин, Андрей Полищук, Анатолий Горин
О фильме: Бывший сотрудник ОМОНа Ивана Петрович Калугин давно отошел от дел. Он живет в тихом рыбацком поселке вместе с семьей - женой Катей, невесткой и старшим сыном Артёмом. Как примерный семьянин и хороший хозяин, Петрович держит под контролем не только семью. Вместе с Артёмом Петрович водит баркас и рыбачит, а в свободное время решает конфликты соседей и гоняет местных браконьеров. В поселке его побаиваются, но уважают, ведь жители знают: Петрович всегда поступит справедливо и по совести. Но размеренная деревенская жизнь неожиданно заканчивается, когда в семью возвращается второй сын Петровича - Семён.

Качество: HDTVRip | КПК
Видео: MPEG-4 AVC (x264), 640x360, ~500 kbps, 25.000 fps
Аудио: AAC LC, 48.0 KHz, 2 ch, 128 Kbps
Продолжительность: 2 x ~ 00:47:00
Перевод / Озвучка: Не требуется [Русский]
Cубтитры: нет

Скриншоты

MediaInfo

Complete name : F:\КИНО\Petrovich.S01.2016.AVC.HDTVRip.KPK.GF\Petrovich.s01e01.2016.AVC.HDTVRip.KPK.GF.mp4
Format : MPEG-4
Codec ID : M4V (isom/iso2/avc1)
File size : 214 MiB
Duration : 47 min 13 s
Overall bit rate mode : Variable
Overall bit rate : 634 kb/s
Writing application : Lavf53.19.0
Video
ID : 1
Format : AVC
Format/Info : Advanced Video Codec
Format profile : High@L4.1
Format settings, CABAC : Yes
Format settings, RefFrames : 8 frames
Codec ID : avc1
Codec ID/Info : Advanced Video Coding
Duration : 47 min 13 s
Bit rate : 500 kb/s
Width : 640 pixels
Height : 336 pixels
Display aspect ratio : 1.905
Frame rate mode : Constant
Frame rate : 25.000 FPS
Color space : YUV
Chroma subsampling : 4:2:0
Bit depth : 8 bits
Scan type : Progressive
Bits/(Pixel*Frame) : 0.093
Stream size : 169 MiB (79%)
Writing library : x264 core 148 r2638 7599210
Encoding settings : cabac=1 / ref=8 / deblock=1:-1:-1 / analyse=0x3:0x133 / me=umh / subme=10 / psy=1 / psy_rd=1.00:0.00 / mixed_ref=1 / me_range=24 / chroma_me=1 / trellis=2 / 8x8dct=1 / cqm=0 / deadzone=21,11 / fast_pskip=1 / chroma_qp_offset=-2 / threads=6 / lookahead_threads=1 / sliced_threads=0 / nr=0 / decimate=1 / interlaced=0 / bluray_compat=0 / constrained_intra=0 / bframes=8 / b_pyramid=2 / b_adapt=2 / b_bias=0 / direct=3 / weightb=1 / open_gop=0 / weightp=2 / keyint=250 / keyint_min=126 / scenecut=40 / intra_refresh=0 / rc_lookahead=40 / rc=2pass / mbtree=1 / bitrate=500 / ratetol=1.0 / qcomp=0.60 / qpmin=0 / qpmax=69 / qpstep=4 / cplxblur=20.0 / qblur=0.5 / ip_ratio=1.40 / aq=1:1.00
Menus : 3
Audio
ID : 2
Format : AAC
Format/Info : Advanced Audio Codec
Format profile : LC
Codec ID : 40
Duration : 47 min 13 s
Bit rate mode : Variable
Bit rate : 128 kb/s
Channel(s) : 2 channels
Channel positions : Front: L R
Sampling rate : 48.0 kHz
Frame rate : 46.875 FPS (1024 SPF)
Compression mode : Lossy
Stream size : 43.2 MiB (20%)
Default : Yes
Alternate group : 1
Menus : 3
Релиз от:
[Profile] [PM]
Display posts:    
Reply to topic

Current time is: 21-Sep 19:20

All times are UTC + 3



You cannot post new topics in this forum
You cannot reply to topics in this forum
You cannot edit your posts in this forum
You cannot delete your posts in this forum
You cannot vote in polls in this forum
You cannot attach files in this forum
You cannot download files in this forum