Человек и закон [эфир 14.02] (2020) SATRip от GeneralFilm

Reply to topic
 
Author Message

Starik60 ®

Gender: Male

Longevity: 1 year 3 months

Posts: 215

Location: Москва, Россия

Post 14-Feb-2020 11:19

[Quote]

Человек и закон
Год выпуска: 2020
Жанр: Документальный, расследование
Выпущено: Россия, Телекомпания "Останкино"
Режиссер: Денис Пиманов
Ведущий: Алексей Пиманов
О фильме: Общественно-политическая программа "Человек и закон" выходит на главном телеканале страны уже 35 лет (Алексей Пиманов ведет программу с 1996 года). Столь "преклонный возраст" ничуть не мешает программе оставаться одной из самых востребованных и актуальных на отечественном телевидении. Быть может потому, что основные темы - борьба с организованной преступностью, расследования о коррупции в высших эшелонах власти, криминальные истории…
Официальный сайт
Качество: SATRip
Видео: XviD, 1600 Кбит/с, 720x400
Аудио: AC3, 2 ch, 192 Кбит/с
Продолжительность: 01:03:00
Перевод: Не требуется

Скриншоты


MediaInfo


General
Complete name : G:\Temp\Человек и закон 14.02.2020.GeneralFilm.avi
Format : AVI
Format/Info : Audio Video Interleave
File size : 632 MiB
Duration : 49 min 3 s
Overall bit rate : 1 802 kb/s
Writing application : VirtualDubMod 1.5.10.3 | www.virtualdub-fr.org || (build 2550/release)
Writing library : VirtualDubMod build 2550/release
Video
ID : 0
Format : MPEG-4 Visual
Format profile : Advanced Simple@L5
Format settings : BVOP1 / Custom Matrix
Format settings, BVOP : 1
Format settings, QPel : No
Format settings, GMC : No warppoints
Format settings, Matrix : Custom
Codec ID : XVID
Codec ID/Hint : XviD
Duration : 49 min 3 s
Bit rate : 1 600 kb/s
Width : 720 pixels
Height : 400 pixels
Display aspect ratio : 16:9
Frame rate : 25.000 FPS
Color space : YUV
Chroma subsampling : 4:2:0
Bit depth : 8 bits
Scan type : Progressive
Compression mode : Lossy
Bits/(Pixel*Frame) : 0.222
Stream size : 561 MiB (89%)
Writing library : XviD 73
Audio
ID : 1
Format : AC-3
Format/Info : Audio Coding 3
Commercial name : Dolby Digital
Codec ID : 2000
Duration : 49 min 3 s
Bit rate mode : Constant
Bit rate : 192 kb/s
Channel(s) : 2 channels
Channel layout : L R
Sampling rate : 48.0 kHz
Frame rate : 31.250 FPS (1536 SPF)
Bit depth : 16 bits
Compression mode : Lossy
Stream size : 67.4 MiB (11%)
Alignment : Split accross interleaves
Interleave, duration : 40 ms (1.00 video frame)
Interleave, preload duratio : 500 ms
Service kind : Complete Main

Содержание


Правовой дайджест недели. Столичные полицейские задержали троих пранкеров, разыгравших «приступ» коронавируса в вагоне метро. Суд арестовал «шутников» до 8 марта. Питер. Молодая девушка в соцсетях познакомилась с перспективным, но возрастным бизнесменом. Конфетно-букетный период закончился быстро. Пока хозяина не было дома она вытащила из его квартиры 50-киллограмовый сейф со всей наличностью. Задержана с поличным банда автомошенников, которая орудовала по всей стране. Бывший начальник ФСИН застрелился прямо в суде — сразу после того, как ему вынесли обвинительный приговор. Точка в деле художницы Дарьи Агений, которую обвиняли в том, что она превысила пределы допустимой самообороны и пырнула ножичком для заточки карандашей напавшего на нее насильника. Москвичка развела в своей трешке 130 рыжих котов. Соседи за головы хватаются.
Не прячьте Ваши денежки по банкам и углам, несите Ваши денежки — иначе быть беде! Если Вам позвонили и представились Службой безопасности банка, в котором Вы храните все свои сбережения, с ходу назвали если не все, то почти все личные данные, и сообщили, что с Вашего счета пытались снять деньги, а вот мы-то сейчас Вас и спасем — не верьте! Внучка Сергея Образцова оказалась в числе доверчивых жертв. И если бы она одна. Банки чуть не ежедневно извещают клиентов о том, что воровство со счетов и кредитных карт вышло на новый уровень. Как не попасть в сети мошенников. Советы полицейских, психолога, специалиста по компьютерной криминалистике, эксперта по безопасности и защите систем дистанционного банкинга.
«Серийное банкротство» как диагноз. Миллиарды бюджетных рублей в кредит под госгарантии. Несмотря на серьезные проблемы с банками и энергетиками. Как итог — полученные деньги испарились в неизвестном направлении, долги пришлось гасить Минфину из госказны, а владельцы липецкого трубного завода «Свободный сокол», не успев объявить себя банкротами, тут же организовали зеркальную компанию и выкупили за бесценок все оборудование. Так было в 2008-м. Так было в 2013-м, когда программа сделала первый сюжет о «предприимчивых товарищах», которые задолжали шахтерам и умудрились обанкротить одну из крупнейших шахт в Кемерово. Тогда губернатору Тулееву пришлось даже обращаться с открытым письмом в правоохранительные органы — с просьбой объявить сбежавших аферистов во всероссийский и международный розыск. Нечто похожее происходит и сейчас. Проверенные схемы, но новые долги, уголовные дела и судебные разбирательства.
Школьные поборы. Безразмерные букеты на 1 сентября, подарки ко Дню учителя, Новый год, 8 марта. Туалетная бумага, специальные маркеры для доски вместо тряпки и мела, кулер в каждом классе, охрана на входе. Кто за что и сколько платит. Нужно ли это делать. Что говорит закон, и вправе ли мы отказаться от «навязанных услуг»? Родители учеников Школы искусств г. Балашихи обратились за помощью в программу — задушили бесконечные «добровольные взносы». Отец третьеклассника из Перми Сергей Медведев стал настоящим врагом в школе после того как отказался скидываться на линолеум и учебники по математике какого то супермодного автора. Ольга Ванюшина, многодетная мама из Липецка, потеряла мужа. С деньгами очень туго. Не знает, что делать — классная руководительница травит сына за то, что Ольга объявила войну поборам. Достается и однокласснице сына, Полине Латыниной. Ее мама тоже в списке должников родительского комитета. Специальное расследование.
Релиз от:
[Profile] [PM]
Display posts:    
Reply to topic

Current time is: 24-Feb 02:47

All times are UTC + 3



You cannot post new topics in this forum
You cannot reply to topics in this forum
You cannot edit your posts in this forum
You cannot delete your posts in this forum
You cannot vote in polls in this forum
You cannot attach files in this forum
You cannot download files in this forum