Алькатрас / Alcatraz (2018) WEB-DL 1080p

Reply to topic
 
Author Message

Monk ®

Gender: Male

Longevity: 1 year

Posts: 9584

Location: Казань

Post 19-Nov-2018 10:52

[Quote]

Алькатрас / Alcatraz Год выпуска: 2018
Жанр: Боевик, криминал
Выпущено: США, Великобритания, North Bank Entertainment
Режиссер: Эндрю Джонс
В ролях: Гарет Лоуренс, Ли Бэйн, Дерек Нельсон, Харриет Рис, Марк Гомер, Трэвис Бут-Миллард, Патрик О'Доннелл, Эрик Хейден, Николас Энскомб, Райан Майклс
О фильме: Молодой парень Клэренс попадает в известную своей строгостью тюрьму-крепость Алькатрас. Там он становится участником одной обособленной группы заключенных, во главе которой стоит жестокий убийца и бандит. Все вместе они решают попытать удачу и сбежать с этого проклятого острова.

Качество: WEB-DL 1080p
Видео: MPEG-4 AVC, 4588 Кбит/с, 1920x800
Аудио: Русский (AC3, 6 ch, 448 Кбит/с), английский (AC3, 6 ch, 384 Кбит/с)
Продолжительность: 01:29:49
Перевод: Любительский двухголосый [HiWay Grope]

Скриншоты


MediaInfo

Общее
Уникальный идентификатор : 78511364080136729546479761551464627662 (0x3B10BD1BD075462C9B846267D4D87DCE)
Полное имя : D:\Alcatraz.2018.WEB-DL.1080p.Rus.Eng.stalkerok.New-Team.mkv
Формат : Matroska
Версия формата : Version 4 / Version 2
Размер файла : 3,30 Гбайт
Продолжительность : 1 ч. 27 м.
Общий поток : 5421 Кбит/сек
Название фильма : Alcatraz (2018) | release by stalkerok
Дата кодирования : UTC 2018-11-17 14:23:09
Программа кодирования : mkvmerge v28.2.0 ('The Awakening') 64-bit
Библиотека кодирования : libebml v1.3.6 + libmatroska v1.4.9
Видео
Идентификатор : 1
Формат : AVC
Формат/Информация : Advanced Video Codec
Профиль формата : High@L4
Настройки формата : CABAC / 5 Ref Frames
Параметр CABAC формата : Да
Параметр RefFrames формата : 5 кадров
Идентификатор кодека : V_MPEG4/ISO/AVC
Продолжительность : 1 ч. 27 м.
Битрейт : 4481 Кбит/сек
Ширина : 1920 пикселей
Высота : 800 пикселей
Соотношение сторон : 2,40:1
Режим частоты кадров : Постоянный
Частота кадров : 23,976 (24000/1001) кадра/сек
Цветовое пространство : YUV
Субдискретизация насыщенности : 4:2:0
Битовая глубина : 8 бит
Тип развёртки : Прогрессивная
Бит/(Пиксели*Кадры) : 0.122
Размер потока : 2,73 Гбайт (83%)
Заголовок : Alcatraz.2018.1080p.WEB-DL.H264.AC3-EVO
Default : Да
Forced : Нет
Цветовой диапазон : Limited
Основные цвета : BT.709
Характеристики трансфера : BT.709
Коэффициенты матрицы : BT.709
Аудио #1
Идентификатор : 2
Формат : AC-3
Формат/Информация : Audio Coding 3
Идентификатор кодека : A_AC3
Продолжительность : 1 ч. 27 м.
Вид битрейта : Постоянный
Битрейт : 448 Кбит/сек
Каналы : 6 каналов
Расположение каналов : Front: L C R, Side: L R, LFE
Частота : 48,0 КГц
Частота кадров : 31,250 кадров/сек (1536 SPF)
Битовая глубина : 16 бит
Метод сжатия : С потерями
Размер потока : 279 Мбайт (8%)
Заголовок : HiWayGrope
Язык : Russian
ServiceKind/String : Complete Main
Default : Да
Forced : Нет
Аудио #2
Идентификатор : 3
Формат : AC-3
Формат/Информация : Audio Coding 3
Идентификатор кодека : A_AC3
Продолжительность : 1 ч. 27 м.
Вид битрейта : Постоянный
Битрейт : 384 Кбит/сек
Каналы : 6 каналов
Расположение каналов : Front: L C R, Side: L R, LFE
Частота : 48,0 КГц
Частота кадров : 31,250 кадров/сек (1536 SPF)
Битовая глубина : 16 бит
Метод сжатия : С потерями
Размер потока : 239 Мбайт (7%)
Язык : English
ServiceKind/String : Complete Main
Default : Нет
Forced : Нет
Меню
00:00:00.000 : en:1
00:04:33.857 : en:2
00:10:34.634 : en:3
00:15:27.927 : en:4
00:23:21.066 : en:5
00:28:32.000 : en:6
00:33:02.145 : en:7
00:39:48.050 : en:8
00:44:44.930 : en:9
00:49:06.982 : en:10
00:54:47.155 : en:11
01:00:41.383 : en:12
01:07:31.709 : en:13
01:11:09.634 : en:14
01:16:22.404 : en:15
01:21:57.155 : en:16
[Profile] [PM]
Display posts:    
Reply to topic

Current time is: 08-Dec 07:04

All times are UTC + 3



You cannot post new topics in this forum
You cannot reply to topics in this forum
You cannot edit your posts in this forum
You cannot delete your posts in this forum
You cannot vote in polls in this forum
You cannot attach files in this forum
You cannot download files in this forum