Проект «Анна Николаевна» [1 сезон: 1-8 серии из 8] (2020) WEBRip от Files-x

Reply to topic
 
Author Message

bond74 ®

Gender: Male

Longevity: 1 year 6 months

Posts: 785

Post 02-Apr-2020 22:58

[Quote]

Проект «Анна Николаевна» Год выпуска: 2020
Жанр: Комедия, фантастика, драма
Выпущено: Россия, Продюсерская компания «Среда»
Режиссер: Максим Пежемский
В ролях: Зоя Бербер, Антон Филипенко, Маруся Климова, Сергей Гармаш, Фёдор Лавров, Кузьма Сапрыкин, Антон Васильев, Никита Тарасов, Анна Котова, Ирина Розанова, Алексей Шильников, Дмитрий Поднозов, Юлия Ауг, Александра Сыдорук, Александр Ильин, Даниил Чибриков, Екатерина Ильина (III), Евгений Санников, Михаил Шеломенцев, Владимир Бирюков, Сергей Епишев, Виктор Цекало, Алиса Хазанова, Юлия Шубарева, Александр Баширов, Дмитрий Быковский-Ромашов, Игорь Хрипунов, Павел Деревянко, Михаил Пореченков, Ксения Каталымова, Борис Каморзин, Сергей Ланбамин, Никита Кологривый, Тимофей Трибунцев, Павел Ворожцов, Ольга Румянцева-Лобанова, Ринат Муталлапов, Алиса Гребенщи
О фильме: Отечественные учёные создали андроида-полицейского. Идеальная во всех отношениях капитан Анна Николаевна Королькевич отправляется служить в провинциальный город, чтобы увидеть реальную жизнь и стать похожей на человека. Коллеги думают, что Анна Николаевна — дочь замминистра, и ничто не предвещает беды, пока очеловечивание не заходит слишком далеко.

Качество: WEBRip
Видео: XviD, 1600 Кбит/с, 720x304, 25 кадр/с
Аудио: AC3, 2 ch, 192 Кбит/с
Продолжительность: 8 х ~ 00:50:00
Перевод: Не требуется
Субтитры: нет

Скриншоты

MediaInfo

General
Complete name : H:\fiiles x\Проект «Анна Николаевна» .2020.WEB-DLRip.Files-x\02. Проект «Анна Николаевна» .2020.WEB-DLRip.Files-x.avi
Format : AVI
Format/Info : Audio Video Interleave
File size : 654 MiB
Duration : 50mn 43s
Overall bit rate : 1 802 Kbps
Writing application : VirtualDubMod 1.5.10.3 | www.virtualdub-fr.org || (build 2550/release)
Writing library : VirtualDubMod build 2550/release
Video
ID : 0
Format : MPEG-4 Visual
Format profile : Advanced Simple@L5
Format settings, BVOP : 1
Format settings, QPel : No
Format settings, GMC : No warppoints
Format settings, Matrix : Custom
Codec ID : XVID
Codec ID/Hint : XviD
Duration : 50mn 43s
Bit rate : 1 600 Kbps
Width : 720 pixels
Height : 304 pixels
Display aspect ratio : 2.35:1
Frame rate : 25.000 fps
Color space : YUV
Chroma subsampling : 4:2:0
Bit depth : 8 bits
Scan type : Progressive
Compression mode : Lossy
Bits/(Pixel*Frame) : 0.292
Stream size : 580 MiB (89%)
Writing library : XviD 73
Audio
ID : 1
Format : AC-3
Format/Info : Audio Coding 3
Mode extension : CM (complete main)
Codec ID : 2000
Duration : 50mn 43s
Bit rate mode : Constant
Bit rate : 192 Kbps
Channel(s) : 2 channels
Channel positions : Front: L R
Sampling rate : 48.0 KHz
Bit depth : 16 bits
Compression mode : Lossy
Stream size : 69.7 MiB (11%)
Alignment : Split accross interleaves
Interleave, duration : 40 ms (1.00 video frame)
Interleave, preload duration : 500 ms

Раздача ведётся путём добавления новых серий

Внимание! Раздача ведётся путём добавления новых серий; при каждом добавлении создаётся новый торрент.
Чтобы начать докачку новой серии, пользователям необходимо сделать следующее:
1. Остановить скачивание;
2. Удалить старый торрент у себя из клиента (старые серии удалять не надо);
3. Скачать новый торрент и запустить его у себя в клиенте вместо старого, при этом указать клиенту путь в старую папку куда и должно происходить скачивание новых серий. Ваш клиент при этом должен произвести хеширование (проверку) старой папки и будет докачивать только те серии, которых у вас ещё нет. Старые серии при этом не удаляются, а продолжают раздаваться! Eсли вы уже удалили старые серии, то предотвратить повторную закачку старых серий можно, отжав галочку в соответствующих местах при запуске нового торрента.
Релиз от:

Release was prepared by RG Files-x

[Profile] [PM]
Display posts:    
Reply to topic

Current time is: 04-Jun 02:10

All times are UTC + 3



You cannot post new topics in this forum
You cannot reply to topics in this forum
You cannot edit your posts in this forum
You cannot delete your posts in this forum
You cannot vote in polls in this forum
You cannot attach files in this forum
You cannot download files in this forum