Суперфлай / Superfly (2018) BDRip AVC | Лицензия

Reply to topic
 
Author Message

Monk ®

Gender: Male

Longevity: 9 months 10 days

Posts: 7980

Location: Казань

Post 19-Nov-2018 11:23

[Quote]

Суперфлай / Superfly Год выпуска: 2018
Жанр: Боевик, триллер, криминал
Выпущено: США, Columbia Pictures, Silver Pictures, Sony Pictures Entertainment
Режиссер: Директор Икс.
В ролях: Тревор Джексон, Джейсон Митчелл, Майкл Кеннет Уильямс, Лекс Скотт Дэвис, Дженнифер Моррисон, Каалан Рашад Уокер, Эсай Моралес, Андреа Лондо, Биг Банк Блэк, Биг Бой
О фильме: Темнокожий наркодилер Янгблад Прист ждет не дождется, когда он сможет выйти из преступного бизнеса. Но для начала ему нужно заработать на честную жизнь, продав огромную партию кокаина. Список дел Приста пополняется разборками с полицейскими, разоблачением друга-предателя и устройством личной жизни с любимой девушкой Джорджией.

Качество: BDRip AVC
Видео: MPEG-4 AVC, 2105 Кбит/с, 1024x554
Аудио: Русский (AC3, 6 ch, 448 Кбит/с), (AC3, 2 ch, 192 Кбит/с), английский (AC3, 6 ch, 448 Кбит/с)
Продолжительность: 01:56:11
Перевод: Профессиональный многоголосый [Лицензия]
Субтитры: Русские, английские

Скриншоты



MediaInfo

Общее
Уникальный идентификатор : 244030483598560435519858860364545657391 (0xB7968FC316DCCB5832F4F3DE02040A2F)
Полное имя : F:\OlLanDGroup\SuperFly.2018.BDRip(AVC).OlLanDGroup.mkv
Формат : Matroska
Версия формата : Version 4 / Version 2
Размер файла : 2,59 Гбайт
Продолжительность : 1 ч. 56 м.
Общий поток : 3196 Кбит/сек
Название фильма : SuperFly.2018 #TorpedoUK#
Дата кодирования : UTC 2018-11-15 18:24:03
Программа кодирования : mkvmerge v25.0.0 ('Prog Noir') 64-bit
Библиотека кодирования : libebml v1.3.6 + libmatroska v1.4.9
Обложка : Yes
Attachments : small_cover_land.jpg / cover.jpg / cover_land.jpg / small_cover.jpg
Видео
Идентификатор : 1
Формат : AVC
Формат/Информация : Advanced Video Codec
Профиль формата : High@L4.1
Параметр CABAC формата : Да
Параметр ReFrames формата : 10 кадров
Идентификатор кодека : V_MPEG4/ISO/AVC
Продолжительность : 1 ч. 56 м.
Битрейт : 2105 Кбит/сек
Ширина : 1024 пикселя
Высота : 554 пикселя
Соотношение сторон : 1,85:1
Режим частоты кадров : Постоянный
Частота кадров : 23,976 (24000/1001) кадра/сек
Цветовое пространство : YUV
Субдискретизация насыщенности : 4:2:0
Битовая глубина : 8 бит
Тип развёртки : Прогрессивная
Бит/(Пиксели*Кадры) : 0.155
Размер потока : 1,71 Гбайт (66%)
Библиотека кодирования : x264 core 146 r2538 121396c
Настройки программы : cabac=1 / ref=10 / deblock=1:-3:-3 / analyse=0x3:0x113 / me=umh / subme=11 / psy=1 / psy_rd=0.98:0.04 / mixed_ref=1 / me_range=48 / chroma_me=1 / trellis=2 / 8x8dct=1 / cqm=0 / deadzone=21,11 / fast_pskip=1 / chroma_qp_offset=-3 / threads=6 / lookahead_threads=1 / sliced_threads=0 / nr=0 / decimate=1 / interlaced=0 / bluray_compat=0 / constrained_intra=0 / bframes=10 / b_pyramid=2 / b_adapt=2 / b_bias=0 / direct=3 / weightb=1 / open_gop=0 / weightp=2 / keyint=240 / keyint_min=23 / scenecut=40 / intra_refresh=0 / rc_lookahead=40 / rc=2pass / mbtree=0 / bitrate=2105 / ratetol=1.0 / qcomp=0.60 / qpmin=0 / qpmax=69 / qpstep=4 / cplxblur=20.0 / qblur=0.5 / vbv_maxrate=50000 / vbv_bufsize=62500 / nal_hrd=none / filler=0 / ip_ratio=1.40 / pb_ratio=1.30 / aq=1:1.00
Язык : English
Default : Да
Forced : Нет
Аудио #1
Идентификатор : 2
Формат : AC-3
Формат/Информация : Audio Coding 3
Расширение режима : CM (complete main)
Параметр Endianness формата : Big
Идентификатор кодека : A_AC3
Продолжительность : 1 ч. 56 м.
Вид битрейта : Постоянный
Битрейт : 448 Кбит/сек
Каналы : 6 каналов
Расположение каналов : Front: L C R, Side: L R, LFE
Частота : 48,0 КГц
Частота кадров : 31,250 кадров/сек (1536 spf)
Битовая глубина : 16 бит
Метод сжатия : С потерями
Размер потока : 372 Мбайт (14%)
Заголовок : MVO [License]
Язык : Russian
Default : Да
Forced : Нет
Аудио #2
Идентификатор : 3
Формат : AC-3
Формат/Информация : Audio Coding 3
Расширение режима : CM (complete main)
Параметр Endianness формата : Big
Идентификатор кодека : A_AC3
Продолжительность : 1 ч. 56 м.
Вид битрейта : Постоянный
Битрейт : 192 Кбит/сек
Каналы : 2 канала
Расположение каналов : Front: L R
Частота : 48,0 КГц
Частота кадров : 31,250 кадров/сек (1536 spf)
Битовая глубина : 16 бит
Метод сжатия : С потерями
Размер потока : 160 Мбайт (6%)
Заголовок : MVO [HDRezka Studio]
Язык : Russian
Default : Нет
Forced : Нет
Аудио #3
Идентификатор : 4
Формат : AC-3
Формат/Информация : Audio Coding 3
Расширение режима : CM (complete main)
Параметр Endianness формата : Big
Идентификатор кодека : A_AC3
Продолжительность : 1 ч. 56 м.
Вид битрейта : Постоянный
Битрейт : 448 Кбит/сек
Каналы : 6 каналов
Расположение каналов : Front: L C R, Side: L R, LFE
Частота : 48,0 КГц
Частота кадров : 31,250 кадров/сек (1536 spf)
Битовая глубина : 16 бит
Метод сжатия : С потерями
Размер потока : 372 Мбайт (14%)
Заголовок : [Original]
Язык : English
Default : Нет
Forced : Нет
Текст #1
Идентификатор : 5
Формат : UTF-8
Идентификатор кодека : S_TEXT/UTF8
Идентификатор кодека/Информация : UTF-8 Plain Text
Продолжительность : 1 ч. 24 м.
Битрейт : 2 бит/сек
Count of elements : 23
Размер потока : 1,33 Кбайт (0%)
Заголовок : Forced
Язык : Russian
Default : Да
Forced : Нет
Текст #2
Идентификатор : 6
Формат : UTF-8
Идентификатор кодека : S_TEXT/UTF8
Идентификатор кодека/Информация : UTF-8 Plain Text
Продолжительность : 1 ч. 54 м.
Битрейт : 92 бит/сек
Count of elements : 1594
Размер потока : 77,7 Кбайт (0%)
Заголовок : Full
Язык : Russian
Default : Нет
Forced : Нет
Текст #3
Идентификатор : 7
Формат : UTF-8
Идентификатор кодека : S_TEXT/UTF8
Идентификатор кодека/Информация : UTF-8 Plain Text
Продолжительность : 1 ч. 48 м.
Битрейт : 64 бит/сек
Count of elements : 1567
Размер потока : 51,2 Кбайт (0%)
Заголовок : Full
Язык : English
Default : Нет
Forced : Нет
Текст #4
Идентификатор : 8
Формат : UTF-8
Идентификатор кодека : S_TEXT/UTF8
Идентификатор кодека/Информация : UTF-8 Plain Text
Продолжительность : 1 ч. 56 м.
Битрейт : 83 бит/сек
Count of elements : 2070
Размер потока : 70,8 Кбайт (0%)
Заголовок : SDH
Язык : English
Default : Нет
Forced : Нет
Меню
00:00:00.000 : en:Chapter 01
00:05:54.145 : en:Chapter 02
00:14:24.321 : en:Chapter 03
00:21:11.603 : en:Chapter 04
00:28:39.926 : en:Chapter 05
00:35:25.915 : en:Chapter 06
00:40:37.518 : en:Chapter 07
00:47:54.121 : en:Chapter 08
00:54:24.511 : en:Chapter 09
01:00:06.227 : en:Chapter 10
01:08:10.628 : en:Chapter 11
01:16:01.348 : en:Chapter 12
01:22:30.487 : en:Chapter 13
01:32:03.559 : en:Chapter 14
01:38:19.852 : en:Chapter 15
01:47:35.449 : en:Chapter 16
[Profile] [PM]
Display posts:    
Reply to topic

Current time is: 25-Aug 09:04

All times are UTC + 3



You cannot post new topics in this forum
You cannot reply to topics in this forum
You cannot edit your posts in this forum
You cannot delete your posts in this forum
You cannot vote in polls in this forum
You cannot attach files in this forum
You cannot download files in this forum