Убийства в Амитивилле / The Amityville Murders (2018) WEB-DL 1080p

Reply to topic
 
Author Message

sergey82 ®

Gender: Male

Longevity: 8 months 29 days

Posts: 160

Location: Украина

Post 19-Nov-2018 11:28

[Quote]

Убийства в Амитивилле / The Amityville Murders
Год выпуска: 2018
Жанр: Ужасы
Выпущено: США, Skyline Entertainment, Cinetel Films, ETA Films
Режиссер: Дэниэл Фаррандс
В ролях: Джон Робинсон, Челси Рикеттс, Пол Бен-Виктор, Дайан Франклин, Ноа Бреннер, Зейн Остин, Ке Лоуренс, Ребека Граф, Лэйни Казан, Бёрт Янг
О фильме: Полудокументальный фильм о Рональде Дефео, который 13 ноября 1974 года взял двуствольную винтовку и убил своего отца, мать, двух сестёр и двух братьев, пока они спали в своём печально известном доме в городе Амитивилль. На суде Дефео утверждал, что сделал это под влиянием потусторонних сил, однако так ли это на самом деле?
Качество: WEB-DL 1080p
Видео: MPEG-4 AVC, 4484 Кбит/с, 1908x794
Аудио: Русский (AC3, 2 ch, 192 Кбит/с), английский (AC3, 6 ch, 384 Кбит/с)
Продолжительность: 01:38:01
Перевод: Профессиональный (многоголосый закадровый) [ТВ3]
Cубтитры: нет

Скриншоты

MediaInfo

Общее
Уникальный идентификатор : 232865012270958643377452371987052314373 (0xAF302B85FD6BE072BCE5B83EC6BB3F05)
Полное имя : D:\The Amityville Murders 2018 1080p WEB-DL DD5.1 H.264-EVO.mkv
Формат : Matroska
Версия формата : Version 2
Размер файла : 3,53 Гбайт
Продолжительность : 1 ч. 38 м.
Общий поток : 5162 Кбит/сек
Название фильма : Убийства в Амитивилле / The Amityville Murders (2018)
Дата кодирования : UTC 2018-11-15 10:05:10
Программа кодирования : mkvmerge v8.2.0 ('World of Adventure') 64bit
Библиотека кодирования : libebml v1.3.1 + libmatroska v1.4.2
Видео
Идентификатор : 1
Формат : AVC
Формат/Информация : Advanced Video Codec
Профиль формата : High@L4
Настройки формата : CABAC / 5 Ref Frames
Параметр CABAC формата : Да
Параметр RefFrames формата : 5 кадров
Идентификатор кодека : V_MPEG4/ISO/AVC
Продолжительность : 1 ч. 38 м.
Битрейт : 4484 Кбит/сек
Ширина : 1908 пикселей
Высота : 794 пикселя
Соотношение сторон : 2,40:1
Режим частоты кадров : Постоянный
Частота кадров : 23,976 (24000/1001) кадра/сек
Цветовое пространство : YUV
Субдискретизация насыщенности : 4:2:0
Битовая глубина : 8 бит
Тип развёртки : Прогрессивная
Бит/(Пиксели*Кадры) : 0.123
Размер потока : 3,07 Гбайт (87%)
Язык : English
Default : Да
Forced : Нет
Цветовой диапазон : Limited
Основные цвета : BT.709
Характеристики трансфера : BT.709
Коэффициенты матрицы : BT.709
Аудио #1
Идентификатор : 2
Формат : AC-3
Формат/Информация : Audio Coding 3
Идентификатор кодека : A_AC3
Продолжительность : 1 ч. 38 м.
Вид битрейта : Постоянный
Битрейт : 192 Кбит/сек
Каналы : 2 канала
Расположение каналов : Front: L R
Частота : 48,0 КГц
Частота кадров : 31,250 кадров/сек (1536 SPF)
Битовая глубина : 16 бит
Метод сжатия : С потерями
Задержка видео : -42 мс.
Размер потока : 135 Мбайт (4%)
Заголовок : Профессиональный (многоголосый, закадровый) ТВ3
Язык : Russian
ServiceKind/String : Complete Main
Default : Да
Forced : Нет
Аудио #2
Идентификатор : 3
Формат : AC-3
Формат/Информация : Audio Coding 3
Идентификатор кодека : A_AC3
Продолжительность : 1 ч. 38 м.
Вид битрейта : Постоянный
Битрейт : 384 Кбит/сек
Каналы : 6 каналов
Расположение каналов : Front: L C R, Side: L R, LFE
Частота : 48,0 КГц
Частота кадров : 31,250 кадров/сек (1536 SPF)
Битовая глубина : 16 бит
Метод сжатия : С потерями
Задержка видео : -42 мс.
Размер потока : 269 Мбайт (7%)
Язык : English
ServiceKind/String : Complete Main
Default : Нет
Forced : Нет
Меню
00:00:00.000 : en:01
00:11:09.377 : en:02
00:24:29.427 : en:03
00:37:24.493 : en:04
00:49:08.529 : en:05
01:00:24.246 : en:06
01:16:05.352 : en:07
01:33:34.401 : en:08
[Profile] [PM]
Display posts:    
Reply to topic

Current time is: 18-Aug 11:07

All times are UTC + 3



You cannot post new topics in this forum
You cannot reply to topics in this forum
You cannot edit your posts in this forum
You cannot delete your posts in this forum
You cannot vote in polls in this forum
You cannot attach files in this forum
You cannot download files in this forum