Предок (2019) WEB-DLRip AVC | iTunes

Reply to topic
 
Author Message

Monk ®

Gender: Male

Longevity: 1 year 7 months

Posts: 12420

Location: Казань

Post 17-May-2020 00:53

[Quote]

Предок Год выпуска: 2019
Жанр: Комедия
Выпущено: Россия, Artlight, Инвада фильм
Режиссер: Максим Зыков
В ролях: Максим Деричев, Дмитрий Гущин, Карина Разумовская, Никита Тарасов, Фёдор Лавров, Даниил Радионов, Яков Киселевич, Ульяна Медведюк, Светлана Колпакова, Марат Хисамов
О фильме: Сергей Лапин решает всерьез взяться за воспитание своего десятилетнего сына, когда неожиданно осознает, что мальчика воспитывают исключительно женщины: дома мама, в школе — женский педагогический состав. Но оказывается, что все не так просто, и процесс воспитания нужно начинать с себя. Никакие педагогические техники не помогут решить пресловутый вопрос отцов и детей, только личный пример и искреннее участие в жизни ребенка. Сергею Лапину предстоит разобраться, чем же живет нынешнее молодое поколение.
Качество: WEB-DLRip AVC
Видео: MPEG-4 AVC, 2207 Кбит/с, 1024x428
Аудио: Русский (AC3, 6 ch, 384 Кбит/с)
Продолжительность: 01:20:33
Перевод: Не требуется [iTunes]

Скриншоты



MediaInfo

Общее
Уникальный идентификатор : 232168715371441410573054183053923072264 (0xAEAA116F8CF6702B3C22FE26DA023908)
Полное имя : Predok.2019.WEB-DLRip.1.46.x264.mkv
Формат : Matroska
Версия формата : Version 4
Размер файла : 1,46 Гбайт
Продолжительность : 1 ч. 20 м.
Общий поток : 2592 Кбит/сек
Название фильма : Предок (2019)
Дата кодирования : UTC 2020-05-16 16:42:41
Программа кодирования : mkvmerge v46.0.0 ('No Deeper Escape') 64-bit
Библиотека кодирования : libebml v1.3.10 + libmatroska v1.5.2
Обложка : Yes
Attachments : cover.jpg
Видео
Идентификатор : 1
Формат : AVC
Формат/Информация : Advanced Video Codec
Профиль формата : High@L4.1
Настройки формата : CABAC / 10 Ref Frames
Параметр CABAC формата : Да
Параметр RefFrames формата : 10 кадров
Идентификатор кодека : V_MPEG4/ISO/AVC
Продолжительность : 1 ч. 20 м.
Битрейт : 2207 Кбит/сек
Ширина : 1024 пикселя
Высота : 428 пикселей
Соотношение сторон : 2,40:1
Режим частоты кадров : Постоянный
Частота кадров : 24,000 кадра/сек
Цветовое пространство : YUV
Субдискретизация насыщенности : 4:2:0
Битовая глубина : 8 бит
Тип развёртки : Прогрессивная
Бит/(Пиксели*Кадры) : 0.210
Размер потока : 1,24 Гбайт (85%)
Заголовок : #stillet
Библиотека кодирования : x264 core 152 r2851bm ba24899
Настройки программы : cabac=1 / ref=10 / deblock=1:-3:-3 / analyse=0x3:0x113 / me=umh / subme=11 / psy=1 / psy_rd=1.00:0.15 / mixed_ref=1 / me_range=32 / chroma_me=1 / trellis=2 / 8x8dct=1 / cqm=0 / deadzone=21,11 / fast_pskip=0 / chroma_qp_offset=-3 / threads=8 / lookahead_threads=3 / sliced_threads=0 / nr=0 / decimate=0 / interlaced=0 / bluray_compat=0 / constrained_intra=0 / bframes=10 / b_pyramid=2 / b_adapt=2 / b_bias=0 / direct=3 / weightb=1 / open_gop=0 / weightp=2 / keyint=240 / keyint_min=23 / scenecut=40 / intra_refresh=0 / rc=2pass / mbtree=0 / bitrate=2207 / ratetol=1.0 / qcomp=0.60 / qpmin=0 / qpmax=69 / qpstep=4 / cplxblur=20.0 / qblur=0.5 / ip_ratio=1.40 / pb_ratio=1.30 / aq=1:1.00
Язык : English
Default : Да
Forced : Нет
Аудио
Идентификатор : 2
Формат : AC-3
Формат/Информация : Audio Coding 3
Коммерческое название : Dolby Digital
Идентификатор кодека : A_AC3
Продолжительность : 1 ч. 20 м.
Вид битрейта : Постоянный
Битрейт : 384 Кбит/сек
Каналы : 6 каналов
ChannelLayout : L R C LFE Ls Rs
Частота : 48,0 КГц
Частота кадров : 31,250 кадров/сек (1536 SPF)
Метод сжатия : С потерями
Размер потока : 221 Мбайт (15%)
Заголовок : iTunes
Язык : Russian
ServiceKind/String : Complete Main
Default : Да
Forced : Да
Меню
00:00:00.000 : en:Глава 1
00:04:15.958 : en:Глава 2
00:10:57.708 : en:Глава 3
00:22:06.833 : en:Глава 4
00:28:31.708 : en:Глава 5
00:35:16.916 : en:Глава 6
00:39:41.916 : en:Глава 7
00:48:35.791 : en:Глава 8
00:57:46.541 : en:Глава 9
01:04:47.332 : en:Глава 10
01:11:23.123 : en:Глава 11
01:15:31.330 : en:Глава 12
[Profile] [PM]
Display posts:    
Reply to topic

Current time is: 10-Jul 06:00

All times are UTC + 3



You cannot post new topics in this forum
You cannot reply to topics in this forum
You cannot edit your posts in this forum
You cannot delete your posts in this forum
You cannot vote in polls in this forum
You cannot attach files in this forum
You cannot download files in this forum