Обычная женщина [1-9 серия из 9] (2018) WEBRip-AVC от Files-x

Reply to topic
 
Author Message

Серый1779 ®

Gender: Male

Longevity: 9 months 8 days

Posts: 522

Location: Украина

Post 14-Nov-2018 22:56

[Quote]

Обычная женщина
Год выпуска: 2018
Жанр: Драма, криминал
Выпущено: Россия, Лук-фильм
Режиссер: Борис Хлебников
В ролях: Анна Михалкова, Евгений Гришковец, Татьяна Догилева, Аглая Тарасова, Александра Бортич, Александр Сударев, Стася Милославская, Анастасия Шаповал, Сергей Маркелов
О фильме: У 39-летней Марины обычный маленький бизнес — цветочный магазинчик, обычная семья — муж работает хирургом, дочери учатся: младшая — в частной школе, старшая — в институте, и вполне обычные заботы. Окружающим её жизнь кажется счастливой, но за этим благополучным фасадом скрываются невероятные семейные тайны. Это история самой обычной женщины, живущей очень необычной жизнью.
Качество: WEBRip (AVC)
Видео: MPEG-4 AVC, ~ 1600 Кбит/с, 1024x424, 25 кадр/с
Аудио: AC3, 2 ch, 192 Кбит/с
Продолжительность: 9 x ~ 00:43:00
Перевод: Не требуется
Субтитры: нет

Скриншоты


MediaInfo

Общее
Уникальный идентификатор : 174517309266960361753787848312727736307 (0x834ACFA90A8671F7937A508A1DCB0FF3)
Полное имя : F:\Обычная женщина.(2018).WEB-DLRip.(AVC).Files-x\01.Obychnaya.zhenschina.(2018).WEB-DLRip.(AVC).by.Серый1779.Files-x.mkv
Формат : Matroska
Версия формата : Version 2
Размер файла : 540 Мбайт
Продолжительность : 42 м. 6 с.
Общий поток : 1793 Кбит/сек
Дата кодирования : UTC 2018-11-01 11:59:44
Программа кодирования : mkvmerge v7.8.0 ('River Man') 32bit built on Apr 3 2015 12:11:22
Библиотека кодирования : libebml v1.3.1 + libmatroska v1.4.2
Видео
Идентификатор : 1
Формат : AVC
Формат/Информация : Advanced Video Codec
Профиль формата : High@L4.1
Настройки формата : CABAC / 9 Ref Frames
Параметр CABAC формата : Да
Параметр RefFrames формата : 9 кадров
Идентификатор кодека : V_MPEG4/ISO/AVC
Продолжительность : 42 м. 6 с.
Битрейт : 1600 Кбит/сек
Ширина : 1024 пикселя
Высота : 424 пикселя
Соотношение сторон : 2,40:1
Режим частоты кадров : Постоянный
Частота кадров : 25,000 кадров/сек
Цветовое пространство : YUV
Субдискретизация насыщенности : 4:2:0
Битовая глубина : 8 бит
Тип развёртки : Прогрессивная
Бит/(Пиксели*Кадры) : 0.147
Размер потока : 471 Мбайт (87%)
Библиотека кодирования : x264 core 146 r2538 121396c
Настройки программы : cabac=1 / ref=9 / deblock=1:-2:-1 / analyse=0x3:0x133 / me=umh / subme=9 / psy=1 / psy_rd=1.00:0.15 / mixed_ref=1 / me_range=32 / chroma_me=1 / trellis=2 / 8x8dct=1 / cqm=0 / deadzone=21,11 / fast_pskip=0 / chroma_qp_offset=-3 / threads=18 / lookahead_threads=3 / sliced_threads=0 / nr=0 / decimate=1 / interlaced=0 / bluray_compat=0 / constrained_intra=0 / bframes=9 / b_pyramid=2 / b_adapt=2 / b_bias=0 / direct=1 / weightb=1 / open_gop=0 / weightp=2 / keyint=250 / keyint_min=25 / scenecut=40 / intra_refresh=0 / rc=2pass / mbtree=0 / bitrate=1600 / ratetol=1.0 / qcomp=0.60 / qpmin=0 / qpmax=69 / qpstep=4 / cplxblur=20.0 / qblur=0.5 / ip_ratio=1.40 / pb_ratio=1.30 / aq=2:1.00
Default : Да
Forced : Нет
Цветовой диапазон : Limited
Основные цвета : BT.709
Характеристики трансфера : BT.709
Коэффициенты матрицы : BT.709
Аудио
Идентификатор : 2
Формат : AC-3
Формат/Информация : Audio Coding 3
Параметр Endianness формата : Big
Идентификатор кодека : A_AC3
Продолжительность : 42 м. 6 с.
Вид битрейта : Постоянный
Битрейт : 192 Кбит/сек
Каналы : 2 канала
Расположение каналов : Front: L R
Частота : 48,0 КГц
Частота кадров : 31,250 кадров/сек (1536 SPF)
Битовая глубина : 16 бит
Метод сжатия : С потерями
Размер потока : 57,8 Мбайт (11%)
ServiceKind/String : Complete Main
Default : Да
Forced : Нет
Релиз от:


Last edited by Серый1779 on 2018-11-22 16:39; edited 2 times in total
[Profile] [PM]
Display posts:    
Reply to topic

Current time is: 21-Aug 11:46

All times are UTC + 3



You cannot post new topics in this forum
You cannot reply to topics in this forum
You cannot edit your posts in this forum
You cannot delete your posts in this forum
You cannot vote in polls in this forum
You cannot attach files in this forum
You cannot download files in this forum