Урфин Джюс возвращается (2019) WEB-DLRip от Generalfilm | КПК

Reply to topic
 
Author Message

mjjhec ®

Gender: Male

Longevity: 2 years

Posts: 748

Location: СССР

Post 31-Jul-2020 22:13

[Quote]

Урфин Джюс возвращается Год выпуска: 2019
Жанр: Мультфильм
Выпущено: Россия, Кинокомпания CTB, Анимационная студия Мельница
Режиссер: Федор Дмитриев
В ролях: Константин Хабенский, Екатерина Гороховская, Александр Быковский, Дмитрий Высоцкий, Дмитрий Дюжев, Андрей Лёвин, Юлия Рудина, Мария Цветкова-Овсянникова, Максим Сергеев, Валерий Соловьев.
О фильме: Элли и ее верный пес Тотошка снова оказываются в Волшебной стране в самое подходящее время. Власть в Изумрудном городе опять пытается захватить коварный Урфин Джюс, который хоть и потерял армию деревянных солдат, но не отказался от своей вредной привычки - портить всем жизнь. В руках Урфина теперь волшебная книга колдуньи Гингемы, которая исполняет любое желание ее хозяина, а значит, Страшила Мудрый, Храбрый Лев и Железный Дровосек в опасности. Элли, Тотошка и их новый приятель Тим решают помочь жителям Волшебной страны. Тем более, Тиму нравится Элли, а что не сделаешь ради любви? Например, глупость. Но ошибки совершает каждый, а вот исправлять их умеют немногие.
Качество: WEB-DLRip | КПК
Видео: Н.264, 640x264 (2.40:1), 25 fps, 400 Kbps
Аудио: AAC LC, 48 KHz, 2 ch, 128 Kbps
Продолжительность: 01:13:35
Перевод / Озвучка: Не требуется

Скриншоты

MediaInfo

General
Complete name : F:\Rip\Urfin.jus.2019.WEB-DLRip.by.mjjhec.mp4
Format : MPEG-4
Format profile : Base Media
Codec ID : isom (isom/avc1/iso6)
File size : 280 MiB
Duration : 1 h 13 min
Overall bit rate mode : Variable
Overall bit rate : 531 kb/s
Encoded date : UTC 2020-07-31 09:25:00
Tagged date : UTC 2020-07-31 09:25:00
Video
ID : 1
Format : AVC
Format/Info : Advanced Video Codec
Format profile : High@L4.1
Format settings : CABAC / 10 Ref Frames
Format settings, CABAC : Yes
Format settings, Reference : 10 frames
Codec ID : avc1
Codec ID/Info : Advanced Video Coding
Duration : 1 h 13 min
Bit rate : 400 kb/s
Maximum bit rate : 2 517 kb/s
Width : 640 pixels
Height : 264 pixels
Display aspect ratio : 2.40:1
Frame rate mode : Constant
Frame rate : 25.000 FPS
Color space : YUV
Chroma subsampling : 4:2:0
Bit depth : 8 bits
Scan type : Progressive
Bits/(Pixel*Frame) : 0.095
Stream size : 210 MiB (75%)
Title : 264@GPAC0.5.2-DEV-rev248-g39d5978-master
Writing library : x264 core 146 r2538 121396c
Encoding settings : cabac=1 / ref=10 / deblock=1:-3:-3 / analyse=0x3:0x133 / me=umh / subme=11 / psy=1 / psy_rd=1.00:1.00 / mixed_ref=1 / me_range=48 / chroma_me=1 / trellis=2 / 8x8dct=1 / cqm=0 / deadzone=21,11 / fast_pskip=0 / chroma_qp_offset=-4 / threads=6 / lookahead_threads=1 / sliced_threads=0 / nr=0 / decimate=0 / interlaced=0 / bluray_compat=0 / constrained_intra=0 / bframes=10 / b_pyramid=2 / b_adapt=2 / b_bias=0 / direct=3 / weightb=1 / open_gop=0 / weightp=2 / keyint=240 / keyint_min=24 / scenecut=40 / intra_refresh=0 / rc_lookahead=60 / rc=2pass / mbtree=0 / bitrate=400 / ratetol=1.0 / qcomp=0.60 / qpmin=0 / qpmax=69 / qpstep=4 / cplxblur=20.0 / qblur=0.5 / vbv_maxrate=14000 / vbv_bufsize=14000 / nal_hrd=none / filler=0 / ip_ratio=1.40 / pb_ratio=1.30 / aq=1:1.00
Encoded date : UTC 2020-07-31 09:25:00
Tagged date : UTC 2020-07-31 09:25:13
Codec configuration box : avcC
Audio
ID : 2
Format : AAC LC
Format/Info : Advanced Audio Codec Low Complexity
Codec ID : mp4a-40-2
Duration : 1 h 13 min
Bit rate mode : Variable
Bit rate : 128 kb/s
Maximum bit rate : 134 kb/s
Channel(s) : 2 channels
Channel layout : L R
Sampling rate : 48.0 kHz
Frame rate : 46.875 FPS (1024 SPF)
Compression mode : Lossy
Stream size : 67.4 MiB (24%)
Encoded date : UTC 2020-07-31 08:05:20
Tagged date : UTC 2020-07-31 09:25:13
Релиз от:
[Profile] [PM]
Display posts:    
Reply to topic

Current time is: 26-Nov 04:43

All times are UTC + 3



You cannot post new topics in this forum
You cannot reply to topics in this forum
You cannot edit your posts in this forum
You cannot delete your posts in this forum
You cannot vote in polls in this forum
You cannot attach files in this forum
You cannot download files in this forum