Окна на бульвар [1-4 серии из 4] (2020) WEB-DLRip от GeneralFilm | КПК

Reply to topic
 
Author Message

GORGIK ®

Gender: Male

Longevity: 1 year 8 months

Posts: 298

Location: СССР

Post 01-Aug-2020 09:32

[Quote]

Окна на бульвар Год выпуска: 2020
Жанр: Детектив
Выпущено: Россия, ООО «Кинокомпания Гамма»
Режиссер: Алексей Рудаков
В ролях: Зоя Дамье, Дмитрий Пчела, Александр Носик, Руслан Ягудин, Евгений Дрёмин, София Умрилова, Юлия Силаева, Ирина Баринова, Елена Котельникова, Игорь Климов, Иван Рудаков, Юрий Осипов, Артём Кобзев, Юлия Стожарова, Екатерина Директоренко, Софья Терехова-Багратиони, Ольга Крылова (II), Ольга Журавлёва (IV), Анна Стурова
О фильме: Квартира на Чистопрудном бульваре – это не просто дорого. Это – особая жизнь, полная воспоминаний, надежд, красоты и романтики. И эта жизнь кажется Александре совершенно естественной, ведь здесь она выросла. Но вот однажды на пороге возникают люди, которые говорят, что теперь ее квартира принадлежит другому человеку. Саше открывается горькая правда: пытаясь спасти свой бизнес, Дима заложил их дом под кредит, который так и не смог погасить. Предательство мужа выбивает у Саши почву из-под ног. Но вскоре в ее жизни появляется новый мужчина – тот самый человек, который вскоре поселится в ее квартире. Он кажется немного опасным, почти чужим и головокружительно знакомым…

Качество: WEB-DLRip | КПК
Видео: MPEG-4 AVC (x264), 640x360, ~500 kbps, 25.000 fps
Аудио: AAC LC, 48.0 KHz, 2 ch, 128 Kbps
Продолжительность: 4 х ~ 00:44:00
Перевод / Озвучка: Не требуется [Русский]
Cубтитры: нет

Скриншоты

MediaInfo

Complete name : F:\КИНО\Okna.Na.Bul'var.S01.2020.AVC.WEB-DLRip.KPK.GF\Okna.Na.Bul'var.s01e01.2020.AVC.WEB-DLRip.KPK.GF.mp4
Format : MPEG-4
Codec ID : M4V (isom/iso2/avc1)
File size : 200 MiB
Duration : 44 min 13 s
Overall bit rate mode : Variable
Overall bit rate : 634 kb/s
Writing application : Lavf53.19.0
Video
ID : 1
Format : AVC
Format/Info : Advanced Video Codec
Format profile : High@L4.1
Format settings, CABAC : Yes
Format settings, RefFrames : 8 frames
Codec ID : avc1
Codec ID/Info : Advanced Video Coding
Duration : 44 min 13 s
Bit rate : 500 kb/s
Width : 640 pixels
Height : 360 pixels
Display aspect ratio : 16:9
Frame rate mode : Constant
Frame rate : 25.000 FPS
Color space : YUV
Chroma subsampling : 4:2:0
Bit depth : 8 bits
Scan type : Progressive
Bits/(Pixel*Frame) : 0.087
Stream size : 158 MiB (79%)
Writing library : x264 core 148 r2638 7599210
Encoding settings : cabac=1 / ref=8 / deblock=1:-1:-1 / analyse=0x3:0x133 / me=umh / subme=10 / psy=1 / psy_rd=1.00:0.00 / mixed_ref=1 / me_range=24 / chroma_me=1 / trellis=2 / 8x8dct=1 / cqm=0 / deadzone=21,11 / fast_pskip=1 / chroma_qp_offset=-2 / threads=6 / lookahead_threads=1 / sliced_threads=0 / nr=0 / decimate=1 / interlaced=0 / bluray_compat=0 / constrained_intra=0 / bframes=8 / b_pyramid=2 / b_adapt=2 / b_bias=0 / direct=3 / weightb=1 / open_gop=0 / weightp=2 / keyint=250 / keyint_min=126 / scenecut=40 / intra_refresh=0 / rc_lookahead=40 / rc=2pass / mbtree=1 / bitrate=500 / ratetol=1.0 / qcomp=0.60 / qpmin=0 / qpmax=69 / qpstep=4 / cplxblur=20.0 / qblur=0.5 / ip_ratio=1.40 / aq=1:1.00
Menus : 3
Audio
ID : 2
Format : AAC
Format/Info : Advanced Audio Codec
Format profile : LC
Codec ID : 40
Duration : 44 min 13 s
Bit rate mode : Variable
Bit rate : 128 kb/s
Channel(s) : 2 channels
Channel positions : Front: L R
Sampling rate : 48.0 kHz
Frame rate : 46.875 FPS (1024 SPF)
Compression mode : Lossy
Stream size : 40.5 MiB (20%)
Default : Yes
Alternate group : 1
Menus : 3
Релиз от:
[Profile] [PM]
Display posts:    
Reply to topic

Current time is: 04-Aug 13:40

All times are UTC + 3



You cannot post new topics in this forum
You cannot reply to topics in this forum
You cannot edit your posts in this forum
You cannot delete your posts in this forum
You cannot vote in polls in this forum
You cannot attach files in this forum
You cannot download files in this forum