Маша и Медведь [5 сезон: 1-2 серия] (2020) WEB-DL 720p от Files-x

Reply to topic
 
Author Message

bond74 ®

Gender: Male

Longevity: 1 year 8 months

Posts: 827

Post 01-Aug-2020 14:37

[Quote]

Маша и Медведь. Год выпуска: 2020
Жанр: Мультсериал, компьютерная анимация, детский, семейный
Выпущено: Россия, Студия "Анимаккорд"
Режиссер: Андрей Беляев, Илья Трусов
В ролях: Юлия Зуникова, Борис Кутневич, Катерина Кутневич
О фильме:Мультсериал про девочку Машу, которая никому не дает покоя, и в первую очередь — своему другу Медведю. Сериал рассчитан в первую очередь на детскую аудиторию от 3 до 9 лет. Тем не менее мультфильм семейный, интересный для всех возрастов, взрослые тоже могут посмеяться над приключениями Маши и Медведя.
Качество: WEB-DL 720p
Видео: MPEG-4 AVC, ~ 1900 Кбит/с, 1280x720, 25 кадр/с
Аудио: AC3, 2 ch, 192 Кбит/с
Продолжительность: 2 x ~ 00:06:30
Перевод: Не требуется
Субтитры: нет

Скриншоты

MediaInfo

General
Unique ID : 179164011391237327469405077946138366951 (0x86C9BBC3588D5213BD9727CD1B8013E7)
Complete name : H:\шоу\Маша и Медведь..2020.WEB-DL 720p.Files-x\02.Chto.vnytri.2020.WEB-DL 720p.Files-x.mkv
Format : Matroska
File size : 127 MiB
Duration : 8mn 31s
Overall bit rate : 2 090 Kbps
Encoded date : UTC 2020-08-01 10:45:49
Writing application : mkvmerge v7.8.0 ('River Man') 32bit built on Apr 3 2015 12:11:22
Writing library : libebml v1.3.1 + libmatroska v1.4.2
Video
ID : 1
Format : AVC
Format/Info : Advanced Video Codec
Format profile : High@L4.1
Format settings, CABAC : Yes
Format settings, ReFrames : 9 frames
Codec ID : V_MPEG4/ISO/AVC
Duration : 8mn 31s
Bit rate : 1 900 Kbps
Width : 1 280 pixels
Height : 720 pixels
Display aspect ratio : 16:9
Frame rate : 25.000 fps
Color space : YUV
Chroma subsampling : 4:2:0
Bit depth : 8 bits
Scan type : Progressive
Bits/(Pixel*Frame) : 0.082
Stream size : 113 MiB (89%)
Writing library : x264 core 146 r2538 121396c
Encoding settings : cabac=1 / ref=9 / deblock=1:-2:-1 / analyse=0x3:0x133 / me=umh / subme=9 / psy=1 / psy_rd=1.00:0.15 / mixed_ref=1 / me_range=32 / chroma_me=1 / trellis=2 / 8x8dct=1 / cqm=0 / deadzone=21,11 / fast_pskip=0 / chroma_qp_offset=-3 / threads=3 / lookahead_threads=1 / sliced_threads=0 / nr=0 / decimate=1 / interlaced=0 / bluray_compat=0 / constrained_intra=0 / bframes=9 / b_pyramid=2 / b_adapt=2 / b_bias=0 / direct=1 / weightb=1 / open_gop=0 / weightp=2 / keyint=250 / keyint_min=25 / scenecut=40 / intra_refresh=0 / rc=2pass / mbtree=0 / bitrate=1900 / ratetol=1.0 / qcomp=0.60 / qpmin=0 / qpmax=69 / qpstep=4 / cplxblur=20.0 / qblur=0.5 / ip_ratio=1.40 / pb_ratio=1.30 / aq=2:1.00
Color primaries : BT.709-5, BT.1361, IEC 61966-2-4, SMPTE RP177
Transfer characteristics : BT.709-5, BT.1361
Matrix coefficients : BT.709-5, BT.1361, IEC 61966-2-4 709, SMPTE RP177
Audio
ID : 2
Format : AC-3
Format/Info : Audio Coding 3
Mode extension : CM (complete main)
Codec ID : A_AC3
Duration : 8mn 31s
Bit rate mode : Constant
Bit rate : 192 Kbps
Channel(s) : 2 channels
Channel positions : Front: L R
Sampling rate : 48.0 KHz
Bit depth : 16 bits
Compression mode : Lossy
Stream size : 11.7 MiB (9%)

Раздача ведётся путём добавления новых серий

Внимание! Раздача ведётся путём добавления новых серий; при каждом добавлении создаётся новый торрент.
Чтобы начать докачку новой серии, пользователям необходимо сделать следующее:
1. Остановить скачивание;
2. Удалить старый торрент у себя из клиента (старые серии удалять не надо);
3. Скачать новый торрент и запустить его у себя в клиенте вместо старого, при этом указать клиенту путь в старую папку куда и должно происходить скачивание новых серий. Ваш клиент при этом должен произвести хеширование (проверку) старой папки и будет докачивать только те серии, которых у вас ещё нет. Старые серии при этом не удаляются, а продолжают раздаваться! Eсли вы уже удалили старые серии, то предотвратить повторную закачку старых серий можно, отжав галочку в соответствующих местах при запуске нового торрента.
Релиз от:

Release was prepared by RG Files-x

[Profile] [PM]
Display posts:    
Reply to topic

Current time is: 04-Aug 13:52

All times are UTC + 3



You cannot post new topics in this forum
You cannot reply to topics in this forum
You cannot edit your posts in this forum
You cannot delete your posts in this forum
You cannot vote in polls in this forum
You cannot attach files in this forum
You cannot download files in this forum