КВН-2020. Премьер лига (1-6 игры) (2020) HDTVRip от GeneralFilm

Reply to topic
 
Author Message

olegka7373 ®

Gender: Male

Longevity: 1 year 10 months

Posts: 365

Location: Россия, Новокузнецк

Post 03-Aug-2020 14:53

[Quote]

КВН-2020. Премьер лига
Год выпуска: 2020
Жанр: Юмор
Выпущено: Россия, АМИК, Первый канал
Ведущий: Александр Масляков мл.
О фильме: Что такое КВН - знают, без сомнения, все. В КВН играют во всем мире, это прежде всего молодежная игра. Постоянные конкурсные задания - "Визитная карточка", "Разминка", "Конкурс капитанов", "Музыкальный конкурс", "Домашнее задание". Игру команд оценивает профессиональное жюри - люди, у которых с чувством юмора все в порядке, многие из них раньше сами играли в КВН. Среди членов жюри были Константин Эрнст, Леонид Парфенов, Юлий Гусман, Леонид Ярмольник, Валдис Пельш, Сергей Шолохов, Геннадий Хазанов и другие. Кроме самих игр проводятся ежегодные встречи: фестиваль команд КВН (с 1990 г., семь раз фестиваль проходил в г.Сочи), музыкальный фестиваль КВН, летний кубок КВН, международные товарищеские игры в КВН. Сборная КВН играет со сборными других стран. Уже состоялись игры между сборной КВН и сборными Америки, Австралии, Израиля... Игра в КВН для многих становится профессией, а многие благодаря игре связывают жизнь с искусством. Из КВН "вышли": Леонид Якубович, Михаил Марфин, Татьяна Лазарева, Олег Филимонов, Юлий Гусман и многие другие.
Качество: HDTVRip
Видео: XviD, ~ 1600 Кбит/с, 720x400, 25 кадр/с
Аудио: Русский (AC3, 2 ch, 192 Кбит/с)
Продолжительность: 6 х ~ 01:05:00
Перевод: Не требуется
Субтитры: нет

Скриншоты


MediaInfo

Общее
Полное имя : D:KVN-2020.Premer liga.HDTVRip.GeneralFilm1.KVN-2020.Premer liga.1.4.finala.Igra pervaja.(02.08.2020).HDTVRip.GeneralFilm.avi
Формат : AVI
Формат/Информация : Audio Video Interleave
Размер файла : 828 Мбайт
Продолжительность : 1 ч. 4 м.
Общий поток : 1797 Кбит/сек
Программа кодирования : VirtualDubMod 1.5.10.3 | www.virtualdub-fr.org || (build 2550/release)
Библиотека кодирования : VirtualDubMod build 2550/release
Видео
Идентификатор : 0
Формат : MPEG-4 Visual
Профиль формата : Advanced Simple@L5
Параметр BVOP формата : 1
Параметр QPel формата : Нет
Параметр GMC формата : Без точки перехода
Параметр матрицы формата : Выборочная
Идентификатор кодека : XVID
Идентификатор кодека/Подсказка : XviD
Продолжительность : 1 ч. 4 м.
Битрейт : 1596 Кбит/сек
Ширина : 720 пикселей
Высота : 400 пикселей
Соотношение сторон : 16:9
Частота кадров : 25,000 кадров/сек
Цветовое пространство : YUV
Субдискретизация насыщенности : 4:2:0
Битовая глубина : 8 бит
Тип развёртки : Прогрессивная
Метод сжатия : С потерями
Бит/(Пиксели*Кадры) : 0.222
Размер потока : 735 Мбайт (89%)
Библиотека кодирования : XviD 1.2.1 (UTC 2008-12-04)
Аудио
Идентификатор : 1
Формат : AC-3
Формат/Информация : Audio Coding 3
Расширение режима : CM (complete main)
Параметр Endianness формата : Big
Идентификатор кодека : 2000
Продолжительность : 1 ч. 4 м.
Вид битрейта : Постоянный
Битрейт : 192 Кбит/сек
Каналы : 2 канала
Расположение каналов : Front: L R
Частота : 48,0 КГц
Битовая глубина : 16 бит
Метод сжатия : С потерями
Размер потока : 88,5 Мбайт (11%)
Выравнивание : Разделение по промежуткам
Продолжительность промежутка : 40 мс. (1,00 видеокадр)
Время предзагрузки промежутка : 500 мс.

Команды

1/4 финала. Игра первая
«+7 ТГСХА», г. Тверь
«Сборная бывших», г. Тула
«Ровеньки», г. Ровеньки (Луганск)
«19:30», ДГТУ, г. Ростов-на-Дону
«Сборная ЧГУ», сборная города Чебоксары
«Для вас», г. Мурманск
1/4 финала. Игра Вторая
«Ласточка», Гомель
«Не такая», Москва
«Дайте посмеяться», Камышлов
«Океан», ВДЦ «Океан», Владивосток
«Заряд», Владимир
«Сборная города Краснодара», Краснодар
1/4 финала. Игра Третья
«Новосиб», Новосибирск
«Завод – ПАО ИЛ», Таганрог
Сборная молодых учёных Росатома, Москва
Сборная Ненецкого автономного округа, Нарьян-Мар
«Лица Республики», Уфа
«Зелёный чемодан», Кемерово
1/4 финала. Игра Четвертая
«Имени меня», Королёв
«Вологодские Росы», Н. Новгород
«Сборная Холодных КВН городов», Н. Новгород
«Улица Плеханова», Москва
«НD, имени Гарика Оганисяна», Энгельс
«Велосипед», Магадан
1/2 финала. Игра первая
«Имени меня», Королев
«НD, имени Гарика Оганисяна», Энгельс
«Ласточка», Гомель
«Дайте посмеяться», Екатеринбург
«Завод – ПАО ИЛ», Таганрог
«Улица Плеханова», Москва
1/2 финала. Игра вторая
«Ровеньки», Ровеньки
«Сборная Холодных КВН городов», Н. Новгород
«Не такая», Москва
«Новосиб», Новосибирск
«Лица республики», Уфа
«Океан», Владивосток

Раздача ведётся путём добавления новых серий

Внимание! Раздача ведётся путём добавления новых серий; при каждом добавлении создаётся новый торрент.
Чтобы начать докачку новой серии, пользователям необходимо сделать следующее:
1. Остановить скачивание;
2. Удалить старый торрент у себя из клиента (старые серии удалять не надо);
3. Скачать новый торрент и запустить его у себя в клиенте вместо старого, при этом указать клиенту путь в старую папку куда и должно происходить скачивание новых серий. Ваш клиент при этом должен произвести хеширование (проверку) старой папки и будет докачивать только те серии, которых у вас ещё нет. Старые серии при этом не удаляются, а продолжают раздаваться! Eсли вы уже удалили старые серии, то предотвратить повторную закачку старых серий можно, отжав галочку в соответствующих местах при запуске нового торрента.
Релиз:


Last edited by olegka7373 on 2020-09-20 05:37; edited 4 times in total
[Profile] [PM]

olegka7373 ®

Gender: Male

Longevity: 1 year 10 months

Posts: 365

Location: Россия, Новокузнецк

Post 10-Aug-2020 06:01 (after 6 days)

[Quote]

Добавлена 1/4 финала. Игра Вторая
[Profile] [PM]

olegka7373 ®

Gender: Male

Longevity: 1 year 10 months

Posts: 365

Location: Россия, Новокузнецк

Post 16-Aug-2020 22:06 (after 6 days)

[Quote]

Добавлена 1/4 финала. Игра третья
[Profile] [PM]

olegka7373 ®

Gender: Male

Longevity: 1 year 10 months

Posts: 365

Location: Россия, Новокузнецк

Post 23-Aug-2020 21:41 (after 6 days)

[Quote]

Добавлена 1/4 финала. Игра четвертая
[Profile] [PM]

olegka7373 ®

Gender: Male

Longevity: 1 year 10 months

Posts: 365

Location: Россия, Новокузнецк

Post 12-Sep-2020 20:42 (after 19 days)

[Quote]

Добавлена 1/2 финала. Игра первая
[Profile] [PM]
Display posts:    
Reply to topic

Current time is: 24-Sep 12:17

All times are UTC + 3



You cannot post new topics in this forum
You cannot reply to topics in this forum
You cannot edit your posts in this forum
You cannot delete your posts in this forum
You cannot vote in polls in this forum
You cannot attach files in this forum
You cannot download files in this forum