Сториз [1-13 серии из ?] (2020) WEB-DLRip-AVC от Files-х

Reply to topic
 
Author Message

papa1951deda ®

Gender: Male

Longevity: 2 years 1 month

Posts: 848

Location: Казахстан

Post 10-Aug-2020 16:54

[Quote]

Сториз Год выпуска: 2020
Жанр: Комедия, скетчком
Выпущено: Россия, Art Pictures Vision, Goose Goose Films
Режиссер: Александр Потапов
В ролях: Юлия Михалкова, Антон Лирник, Игорь Чехов, Олег Верещагин, Дмитрий Колчин, Ольга Кузьмина, Валерия Шкирандо, Даниил Вахрушев
О фильме: Скетчком про жизнь героев самых разных интересов и статусов. Сумасшедшая экоактивистка, находчивый алкоголик, судья с приговором за слишком долгое аудиосообщение, блогер-бабушка и малышка-коуч, московские фифы, назойливая бывшая, врач с идеальным почерком и другие герои покорят сердца телезрителей.
Качество: WEB-DLRip-AVC
Видео: MPEG-4 AVC,, ~ 1600 Кбит/с, 720x400, 25 кадр/с
Аудио: AC3, 2 ch, 192 Кбит/с
Продолжительность: 13 х ~ 00:25:00
Перевод: Не требуется [Русский]
Cубтитры: нет

Скриншоты

MediaInfo

General
Unique ID : 170677571641191350309711706379908710865 (0x80674DFAA717ED188A90A1E8B84A81D1)
Complete name : H:\fiiles x\Сториз.2020.WEB-DLRip.Files-x\02. Сториз.2020.WEB-DLRip.Files-x.mkv
Format : Matroska
File size : 287 MiB
Duration : 22mn 20s
Overall bit rate : 1 794 Kbps
Encoded date : UTC 2020-08-10 12:23:53
Writing application : mkvmerge v7.8.0 ('River Man') 32bit built on Apr 3 2015 12:11:22
Writing library : libebml v1.3.1 + libmatroska v1.4.2
Video
ID : 1
Format : AVC
Format/Info : Advanced Video Codec
Format profile : High@L4.1
Format settings, CABAC : Yes
Format settings, ReFrames : 9 frames
Format settings, GOP : M=1, N=61
Codec ID : V_MPEG4/ISO/AVC
Duration : 22mn 20s
Bit rate : 1 600 Kbps
Width : 720 pixels
Height : 400 pixels
Display aspect ratio : 16:9
Frame rate : 25.000 fps
Color space : YUV
Chroma subsampling : 4:2:0
Bit depth : 8 bits
Scan type : Progressive
Bits/(Pixel*Frame) : 0.222
Stream size : 250 MiB (87%)
Writing library : x264 core 146 r2538 121396c
Encoding settings : cabac=1 / ref=9 / deblock=1:-2:-1 / analyse=0x3:0x133 / me=umh / subme=9 / psy=1 / psy_rd=1.00:0.15 / mixed_ref=1 / me_range=32 / chroma_me=1 / trellis=2 / 8x8dct=1 / cqm=0 / deadzone=21,11 / fast_pskip=0 / chroma_qp_offset=-3 / threads=18 / lookahead_threads=3 / sliced_threads=0 / nr=0 / decimate=1 / interlaced=0 / bluray_compat=0 / constrained_intra=0 / bframes=9 / b_pyramid=2 / b_adapt=2 / b_bias=0 / direct=1 / weightb=1 / open_gop=0 / weightp=2 / keyint=250 / keyint_min=25 / scenecut=40 / intra_refresh=0 / rc=2pass / mbtree=0 / bitrate=1600 / ratetol=1.0 / qcomp=0.60 / qpmin=0 / qpmax=69 / qpstep=4 / cplxblur=20.0 / qblur=0.5 / ip_ratio=1.40 / pb_ratio=1.30 / aq=2:1.00
Color primaries : BT.709-5, BT.1361, IEC 61966-2-4, SMPTE RP177
Transfer characteristics : BT.709-5, BT.1361
Matrix coefficients : BT.709-5, BT.1361, IEC 61966-2-4 709, SMPTE RP177
Audio
ID : 2
Format : AC-3
Format/Info : Audio Coding 3
Mode extension : CM (complete main)
Codec ID : A_AC3
Duration : 22mn 20s
Bit rate mode : Constant
Bit rate : 192 Kbps
Channel(s) : 2 channels
Channel positions : Front: L R
Sampling rate : 48.0 KHz
Bit depth : 16 bits
Compression mode : Lossy
Stream size : 30.7 MiB (11%)

Внимание! Раздача ведётся путём добавления новых серий

Раздача ведётся путём добавления новых серий, при каждом добавлении создаётся новый торрент. Чтобы начать докачку новой серии, пользователям необходимо сделать следующее:
- Остановить скачивание.
- Удалить старый торрент у себя из клиента (старые серии удалять не надо).
- Скачать новый торрент и запустить его у себя в клиенте вместо старого, при этом указать клиенту путь в старую папку куда и должно происходить скачивание новых серий.
Ваш клиент при этом должен произвести хеширование (проверку) старой папки (если не производит сам - помогите ему сделать это), и будет докачивать только те серии которых у вас ещё нет. Старые серии при этом не удаляются, а продолжают раздаваться!

Release was prepared by RG Files-x

[Profile] [PM]
Display posts:    
Reply to topic

Current time is: 18-Jan 20:27

All times are UTC + 3



You cannot post new topics in this forum
You cannot reply to topics in this forum
You cannot edit your posts in this forum
You cannot delete your posts in this forum
You cannot vote in polls in this forum
You cannot attach files in this forum
You cannot download files in this forum