На твоей стороне [2 сезон: 1-24 серии из 24] (2020) WEBRip 1080p от Files-x

Reply to topic
 
Author Message

bond74 ®

Gender: Male

Longevity: 1 year 10 months

Posts: 862

Post 01-Sep-2020 14:04

[Quote]

На твоей стороне Год выпуска: 2020
Жанр: Мелодрама
Выпущено: Украина, DISTRIBUTED BY KANAL D INTERNATIONAL, Кинокомпания "Арт Территория"
Режиссер: Антон Азаров, Сергей Сотниченко, Алексей Есаков
В ролях: Дана Абызова, Дмитрий Ратомский, Сергей Калантай, Фёдор Гуринец, Евгения Муц, Ирина Мельник, Игорь Рубашкин, Виктория Чепурная, Валентина Пугачёва (II), Александр Соколов (VI)
О фильме: Вторая часть истории «На твоей стороне» расскажет о новом времени в жизни главной героини – нейрохирурга Анастасии Стрелецкой. Ее враги, играя роль друзей и благотворителей, становятся еще более изощренными, хладнокровными и хитрыми. Надежда вырваться из плотного кольца преступного окружения разрушается. Ей приходится жить под постоянным наблюдением злодея, главная цель которого уничтожить ее. Настя теряет дорогих членов семьи, но находит новых родных. Она находит главного человека в своей жизни, но ее любовь подвергается серьезным испытаниям на прочность.
Качество: WEBRip 1080p
Видео: MPEG-4 AVC, ~ 6000 Кбит/с, 1920x1080
Аудио: AC3, 2 ch, 192 Кбит/с
Продолжительность: 24 х ~ 00:47:00
Перевод: Не требуется
Субтитры: нет

Скриншоты

MediaInfo

General
Unique ID : 225878309647506948412231059153055400306 (0xA9EE947D17DB421CAE27C9AAF3684172)
Complete name : H:\fiiles x\На твоей стороне.2020. WEB-DL 1080p. Files-x\01. На твоей стороне.2020. WEB-DL 1080p. Files-x.mkv
Format : Matroska
File size : 1.90 GiB
Duration : 44mn 13s
Overall bit rate : 6 156 Kbps
Encoded date : UTC 2020-09-01 09:42:30
Writing application : mkvmerge v7.8.0 ('River Man') 32bit built on Apr 3 2015 12:11:22
Writing library : libebml v1.3.1 + libmatroska v1.4.2
Video
ID : 1
Format : AVC
Format/Info : Advanced Video Codec
Format profile : High@L4.1
Format settings, CABAC : No
Format settings, ReFrames : 2 frames
Codec ID : V_MPEG4/ISO/AVC
Duration : 44mn 13s
Bit rate mode : Constant
Bit rate : 6 000 Kbps
Width : 1 920 pixels
Height : 1 080 pixels
Display aspect ratio : 16:9
Frame rate : 25.000 fps
Standard : PAL
Color space : YUV
Chroma subsampling : 4:2:0
Bit depth : 8 bits
Scan type : Progressive
Bits/(Pixel*Frame) : 0.116
Stream size : 1.80 GiB (95%)
Color primaries : BT.709-5, BT.1361, IEC 61966-2-4, SMPTE RP177
Transfer characteristics : BT.709-5, BT.1361
Matrix coefficients : BT.709-5, BT.1361, IEC 61966-2-4 709, SMPTE RP177
Audio
ID : 2
Format : AC-3
Format/Info : Audio Coding 3
Mode extension : CM (complete main)
Codec ID : A_AC3
Duration : 44mn 13s
Bit rate mode : Constant
Bit rate : 192 Kbps
Channel(s) : 2 channels
Channel positions : Front: L R
Sampling rate : 48.0 KHz
Bit depth : 16 bits
Compression mode : Lossy
Delay relative to video : -40ms
Stream size : 60.7 MiB (3%)

Раздача ведётся путём добавления новых серий

Внимание! Раздача ведётся путём добавления новых серий; при каждом добавлении создаётся новый торрент.
Чтобы начать докачку новой серии, пользователям необходимо сделать следующее:
1. Остановить скачивание;
2. Удалить старый торрент у себя из клиента (старые серии удалять не надо);
3. Скачать новый торрент и запустить его у себя в клиенте вместо старого, при этом указать клиенту путь в старую папку куда и должно происходить скачивание новых серий. Ваш клиент при этом должен произвести хеширование (проверку) старой папки и будет докачивать только те серии, которых у вас ещё нет. Старые серии при этом не удаляются, а продолжают раздаваться! Eсли вы уже удалили старые серии, то предотвратить повторную закачку старых серий можно, отжав галочку в соответствующих местах при запуске нового торрента.
Релиз от:

Release was prepared by RG Files-x

[Profile] [PM]
Display posts:    
Reply to topic

Current time is: 24-Sep 12:26

All times are UTC + 3



You cannot post new topics in this forum
You cannot reply to topics in this forum
You cannot edit your posts in this forum
You cannot delete your posts in this forum
You cannot vote in polls in this forum
You cannot attach files in this forum
You cannot download files in this forum