Незабытая [1-4 серия из 4] (2020) WEB-DL 1080p

Reply to topic
 
Author Message

Nicodem ®

Gender: Male

Longevity: 2 years 3 months

Posts: 768

Post 02-Sep-2020 23:11

[Quote]

Незабытая
Год выпуска: 2020
Жанр: Мелодрама
Выпущено: Украина, Vileton Films, Filmstream
Режиссер: Мирослав Малич
В ролях: Ирина Таранник, Мила Сивацкая, Мария Мархай, Виталий Кудрявцев, Александр Кобзарь, Артемий Егоров, Никита Вакулюк, Сергей Дзялик, Любава Берло, Леся Самаева, Арсен Босенко, Кирилл Черняков, Данил Шевченко, Леонид Захарченко, Алина Костюкова, Вячеслав Василюк, Александр Бондарь, Екатерина Вишнёвая, Андрей Макарченко, Татьяна Лещенко, Жан Селезенев, Сергей Пономаренко, Александр Комендантов, Татьяна Вашневская, Татьяна Солдатова
О фильме: Лариса и Дана - мачеха и дочка, вместе пережили трагические потери и опасности, могли стать друг другу самыми близкими людьми – но стали врагами, не поделив одного на двоих любимого. И потеряли его. Одна винит другую в новом горе и сломанной жизни. По какому пути поведет обеих незабытая обида и жажда мести? Смогут ли женщины найти путь к прощению, или совершат новые, непоправимые ошибки?

Качество: WEB-DL 1080p
Видео: MPEG-4 AVC, ~ 5000 Кбит/с, 1920x1080, 25 кадр/с
Аудио: AC3, 2 ch, 192 Кбит/с
Продолжительность: 4 x ~ 00:45:05
Перевод: Не требуется
Cубтитры: нет

Скриншоты


MediaInfo

General
Unique ID : 200192441745385256663108657209749978039 (0x969BA96D04CA15DAA776BF73C26ABBB7)
Complete name : C:Nezabytaya.E01.2020.WEB-DL.1080p.ExKinoRay.mkv
Format : Matroska
File size : 1.67 GiB
Duration : 45mn 5s
Overall bit rate : 5 312 Kbps
Encoded date : UTC 2021-02-16 01:06:38
Writing application : mkvmerge v5.8.0 ('No Sleep / Pillow') built on Sep 2 2012 15:37:04
Writing library : libebml v1.2.3 + libmatroska v1.3.0
Video
ID : 1
Format : AVC
Format/Info : Advanced Video Codec
Format profile : High@L4.0
Format settings, CABAC : Yes
Format settings, ReFrames : 4 frames
Format settings, GOP : M=3, N=50
Codec ID : V_MPEG4/ISO/AVC
Duration : 45mn 5s
Bit rate : 5 014 Kbps
Width : 1 920 pixels
Height : 1 080 pixels
Display aspect ratio : 16:9
Frame rate mode : Variable
Frame rate : 25.000 fps
Color space : YUV
Chroma subsampling : 4:2:0
Bit depth : 8 bits
Scan type : Progressive
Bits/(Pixel*Frame) : 0.097
Stream size : 1.58 GiB (94%)
Language : Russian
Audio
ID : 2
Format : AC-3
Format/Info : Audio Coding 3
Mode extension : CM (complete main)
Codec ID : A_AC3
Duration : 45mn 5s
Bit rate mode : Constant
Bit rate : 192 Kbps
Channel(s) : 2 channels
Channel positions : Front: L R
Sampling rate : 48.0 KHz
Bit depth : 16 bits
Compression mode : Lossy
Stream size : 61.9 MiB (4%)
Language : Russian

Раздача ведётся путём добавления новых серий

Внимание! Раздача ведётся путём добавления новых серий; при каждом добавлении создаётся новый торрент.
Чтобы начать докачку новой серии, пользователям необходимо сделать следующее:
1. Остановить скачивание;
2. Удалить старый торрент у себя из клиента (старые серии удалять не надо);
3. Скачать новый торрент и запустить его у себя в клиенте вместо старого, при этом указать клиенту путь в старую папку куда и должно происходить скачивание новых серий. Ваш клиент при этом должен произвести хеширование (проверку) старой папки и будет докачивать только те серии, которых у вас ещё нет. Старые серии при этом не удаляются, а продолжают раздаваться! Eсли вы уже удалили старые серии, то предотвратить повторную закачку старых серий можно, отжав галочку в соответствующих местах при запуске нового торрента.
[Profile] [PM]

Nicodem ®

Gender: Male

Longevity: 2 years 3 months

Posts: 768

Post 16-Feb-2021 22:10 (after 5 months 13 days)

[Quote]

Замена на релиз без ЛОГО канала
[Profile] [PM]
Display posts:    
Reply to topic

Current time is: 08-Mar 02:29

All times are UTC + 3



You cannot post new topics in this forum
You cannot reply to topics in this forum
You cannot edit your posts in this forum
You cannot delete your posts in this forum
You cannot vote in polls in this forum
You cannot attach files in this forum
You cannot download files in this forum