Битва экстрасенсов [21 сезон: 1-5 выпуски из 14] (2020) WEBRip 720p от Files-x

Reply to topic
 
Author Message

bond74 ®

Gender: Male

Longevity: 1 year 11 months

Posts: 916

Post 26-Sep-2020 23:53

[Quote]

Битва экстрасенсов Год выпуска: 2020
Жанр: Паранормальное шоу, документальный, мистика, экстрасенсы, сверхъестественное
Выпущено: Россия, ТНТ
Режиссер: Олег Чаурс
Ведущий: Марат Башаров
О фильме: Паранормальное шоу канала ТНТ об экстрасенсах, магах, ясновидящих, гадалках и колдунах. «Битва экстрасенсов 18 сезон» – продолжение рейтингового российского шоу «Битва экстрасенсов», которое выходит с 2007 года на канале ТНТ. Создатели проекта в 18-м сезоне вновь подготовили для телезрителей встречи с удивительными людьми, обладающими уникальными способностями.
Качество: WEBRip 720p
Видео: MPEG-4 AVC, ~ 3000 Кбит/с, 1280х720, 25 кадр/с
Аудио: AC3, 2 ch, 192 Кбит/с
Продолжительность: 5 х ~ 01:15:04
Перевод: Не требуется
Субтитры: нет

Скриншоты

MediaInfo

General
General
Unique ID : 221772394180210761686176479952044362216 (0xA6D7CF3A043A3F65A4B56D71DD2D09E8)
Complete name : H:\шоу\Битва экстрасенсов .2020. S21.WEB-DL 720p. Files-x\01. Битва экстрасенсов .2020. S21.WEB-DL 720p. Files-x.mkv
Format : Matroska
File size : 1.63 GiB
Duration : 1h 13mn
Overall bit rate : 3 191 Kbps
Encoded date : UTC 2020-09-26 17:34:29
Writing application : mkvmerge v7.8.0 ('River Man') 32bit built on Apr 3 2015 12:11:22
Writing library : libebml v1.3.1 + libmatroska v1.4.2
Video
ID : 1
Format : AVC
Format/Info : Advanced Video Codec
Format profile : High@L3.1
Format settings, CABAC : Yes
Format settings, ReFrames : 1 frame
Codec ID : V_MPEG4/ISO/AVC
Duration : 1h 13mn
Bit rate mode : Variable
Bit rate : 2 935 Kbps
Maximum bit rate : 3 000 Kbps
Width : 1 280 pixels
Height : 720 pixels
Display aspect ratio : 16:9
Frame rate : 25.000 fps
Color space : YUV
Chroma subsampling : 4:2:0
Bit depth : 8 bits
Scan type : Progressive
Bits/(Pixel*Frame) : 0.127
Stream size : 1.50 GiB (92%)
Audio
ID : 2
Format : AC-3
Format/Info : Audio Coding 3
Mode extension : CM (complete main)
Codec ID : A_AC3
Duration : 1h 13mn
Bit rate mode : Constant
Bit rate : 192 Kbps
Channel(s) : 2 channels
Channel positions : Front: L R
Sampling rate : 44.1 KHz
Bit depth : 16 bits
Compression mode : Lossy
Delay relative to video : 9ms
Stream size : 100 MiB (6%)

Раздача ведётся путём добавления новых серий

Внимание! Раздача ведётся путём добавления новых серий; при каждом добавлении создаётся новый торрент.
Чтобы начать докачку новой серии, пользователям необходимо сделать следующее:
1. Остановить скачивание;
2. Удалить старый торрент у себя из клиента (старые серии удалять не надо);
3. Скачать новый торрент и запустить его у себя в клиенте вместо старого, при этом указать клиенту путь в старую папку куда и должно происходить скачивание новых серий. Ваш клиент при этом должен произвести хеширование (проверку) старой папки и будет докачивать только те серии, которых у вас ещё нет. Старые серии при этом не удаляются, а продолжают раздаваться! Eсли вы уже удалили старые серии, то предотвратить повторную закачку старых серий можно, отжав галочку в соответствующих местах при запуске нового торрента.
Релиз от:

Release was prepared by RG Files-x

[Profile] [PM]
Display posts:    
Reply to topic

Current time is: 25-Oct 08:10

All times are UTC + 3



You cannot post new topics in this forum
You cannot reply to topics in this forum
You cannot edit your posts in this forum
You cannot delete your posts in this forum
You cannot vote in polls in this forum
You cannot attach files in this forum
You cannot download files in this forum