Сельский детектив. Иголка в стоге сена [3 сезон: 1-4 серии из 4] (2020) WEB-DLRip от Files-x

Reply to topic
 
Author Message

papa1951deda ®

Gender: Male

Longevity: 1 year 11 months

Posts: 749

Location: Казахстан

Post 17-Oct-2020 19:34

[Quote]

Сельский детектив. Иголка в стоге сена Год выпуска: 2020
Жанр: Детектив
Выпущено: Россия, Сила
Режиссер: Сахат Дурсунов
В ролях: Олеся Фаттахова, Алексей Демидов, Данила Якушев, Елена Цыплакова, Павел Белозёров, Александр Пашутин, Надежда Бахтина, Андрей Иванов, Валерия Моисеева, Егор Анисимов, Александр Никольский, Дмитрий Сорокин, Станислав Румянцев, Лариса Крупина, Серафима Соловьёва, Валерий Новико
О фильме: Молодая девушка, шатаясь, подходит к больнице и падает. Перед тем, как отключиться, она успевает сказать два слова: "Меня убили". Врачи уверены: это бред, следствие спутанности сознания. Больная в коме, и причины не криминальны – у неё разрыв аневризмы. При чём тут убийство? Но Олеся уверена: девушка сказала именно то, что хотела. А значит, надо искать. Следователь Маракуев и Кузьма хватаются за головы: теперь "мисс Марпл" ищет убийцу даже когда жертва жива!
Качество: WEB-DLRip
Видео: XviD, ~ 1600 Кбит/с, 720x400
Аудио: AC3, 2 ch, 192 Кбит/с
Продолжительность: 4 х ~ 00:46:00
Перевод: Не требуется [Русский]
Cубтитры: нет

Скриншоты

MediaInfo

General
Complete name : H:\fiiles x\Сельский детектив. Иголка в стоге сена.2020.WEB-DLRip.Files-x\01. Сельский детектив. Иголка в стоге сена.2020.WEB-DLRip.Files-x.avi
Format : AVI
Format/Info : Audio Video Interleave
File size : 595 MiB
Duration : 46mn 12s
Overall bit rate : 1 801 Kbps
Writing application : VirtualDubMod 1.5.10.3 | www.virtualdub-fr.org || (build 2550/release)
Writing library : VirtualDubMod build 2550/release
Video
ID : 0
Format : MPEG-4 Visual
Format profile : Advanced Simple@L5
Format settings, BVOP : 1
Format settings, QPel : No
Format settings, GMC : No warppoints
Format settings, Matrix : Custom
Codec ID : XVID
Codec ID/Hint : XviD
Duration : 46mn 12s
Bit rate : 1 600 Kbps
Width : 720 pixels
Height : 400 pixels
Display aspect ratio : 16:9
Frame rate : 23.976 fps
Color space : YUV
Chroma subsampling : 4:2:0
Bit depth : 8 bits
Scan type : Progressive
Compression mode : Lossy
Bits/(Pixel*Frame) : 0.232
Stream size : 529 MiB (89%)
Writing library : XviD 73
Audio
ID : 1
Format : AC-3
Format/Info : Audio Coding 3
Mode extension : CM (complete main)
Codec ID : 2000
Duration : 46mn 12s
Bit rate mode : Constant
Bit rate : 192 Kbps
Channel(s) : 2 channels
Channel positions : Front: L R
Sampling rate : 48.0 KHz
Bit depth : 16 bits
Compression mode : Lossy
Stream size : 63.5 MiB (11%)
Alignment : Split accross interleaves
Interleave, duration : 42 ms (1.00 video frame)
Interleave, preload duration : 500 ms

Внимание! Раздача ведётся путём добавления новых серий

Раздача ведётся путём добавления новых серий, при каждом добавлении создаётся новый торрент. Чтобы начать докачку новой серии, пользователям необходимо сделать следующее:
- Остановить скачивание.
- Удалить старый торрент у себя из клиента (старые серии удалять не надо).
- Скачать новый торрент и запустить его у себя в клиенте вместо старого, при этом указать клиенту путь в старую папку куда и должно происходить скачивание новых серий.
Ваш клиент при этом должен произвести хеширование (проверку) старой папки (если не производит сам - помогите ему сделать это), и будет докачивать только те серии которых у вас ещё нет. Старые серии при этом не удаляются, а продолжают раздаваться!
Релиз от:

Release was prepared by RG Files-x

[Profile] [PM]
Display posts:    
Reply to topic

Current time is: 25-Oct 08:39

All times are UTC + 3



You cannot post new topics in this forum
You cannot reply to topics in this forum
You cannot edit your posts in this forum
You cannot delete your posts in this forum
You cannot vote in polls in this forum
You cannot attach files in this forum
You cannot download files in this forum