Хандра (2019) WEB-DLRip от Files-х

Reply to topic
 
Author Message

papa1951deda ®

Gender: Male

Longevity: 2 years 2 months

Posts: 855

Location: Казахстан

Post 16-Dec-2020 13:42

[Quote]

Хандра Год выпуска: 2019
Жанр: Комедия
Выпущено: Россия, Кинокомпания «Смена»
Режиссер: Алексей Камынин
В ролях: Данила Якушев, Михаил Тройник, Кирилл Ковбас, Екатерина Агеева, Ксения Зуева, Семен Барков, Анастасия Куимова, Аня Чиповская, Равшана Куркова, Тимофей Трибунцев
О фильме: Это правдивая история троих друзей, снимающих вместе квартиру в Москве. Безработный Деня встречает беременную бывшую из Красноярка, диджей Виталик теряет деньги за хату, а режиссер Леша пытается вместо рекламы кондиционеров снять артхаусный фильм. Разобраться с проблемами друзьям мешают киргизы-заговорщики, врачи-сексисты, омоновцы-ГЛИЦИНисты и прочие небезопасные сограждане. А все это – ради того, чтобы каждый на утро проснулся счастливым.

Качество: WEB-DLRip
Видео: XviD, 1668 Кбит/с, 720x384, 25 кадр/с
Аудио: AC3, 6 ch, 192 Кбит/с
Продолжительность: 01:41:23
Перевод: Не требуется [Русский]
Субтитры: нет

Скриншоты


MediaInfo

General
Complete name: C:\Users\user\Downloads\Video\Handra.2019.WEB-DLRip. Files-x.avi
Format: AVI
Format/Info: Audio Video Interleave
File size: 1.46 GiB
Duration: 1h 41mn
Overall bit rate: 2 062 Kbps
Writing application: VirtualDubMod 1.5.10.3 | www.virtualdub-fr.org || (build 2550/release)
Writing library: VirtualDubMod build 2550/release
Video
ID: 0
Format: MPEG-4 Visual
Format profile: Advanced Simple@L5
Format settings, BVOP: 1
Format settings, QPel: No
Format settings, GMC: No warppoints
Format settings, Matrix: Custom
Codec ID: XVID
Codec ID/Hint: XviD
Duration: 1h 41mn
Bit rate: 1 668 Kbps
Width: 720 pixels
Height: 384 pixels
Display aspect ratio: 1.875
Frame rate: 25.000 fps
Color space: YUV
Chroma subsampling: 4:2:0
Bit depth: 8 bits
Scan type: Progressive
Compression mode: Lossy
Bits/(Pixel*Frame): 0.241
Stream size: 1.18 GiB (81%)
Writing library: XviD 73
Audio
ID: 1
Format: AC-3
Format/Info: Audio Coding 3
Mode extension: CM (complete main)
Codec ID: 2000
Duration: 1h 41mn
Bit rate mode: Constant
Bit rate: 384 Kbps
Channel(s): 6 channels
Channel positions: Front: L C R, Side: L R, LFE
Sampling rate: 48.0 KHz
Bit depth: 16 bits
Compression mode: Lossy
Stream size: 279 MiB (19%)
Alignment: Split accross interleaves
Interleave, duration: 40 ms (1.00 video frame)
Interleave, preload duration: 500 ms
Релиз от:

Release was prepared by RG Files-x

[Profile] [PM]
Display posts:    
Reply to topic

Current time is: 27-Jan 00:12

All times are UTC + 3



You cannot post new topics in this forum
You cannot reply to topics in this forum
You cannot edit your posts in this forum
You cannot delete your posts in this forum
You cannot vote in polls in this forum
You cannot attach files in this forum
You cannot download files in this forum