Константин: Город демонов / Constantine: City of Demons (2018) DVD-5

Ответить на тему
 
Автор Сообщение

sergey82 ®

Пол: Мужской

Стаж: 2 месяца 27 дней

Сообщений: 142

Откуда: Украина

Создавать темы 19-Ноя-2018 14:47

[Цитировать]

Константин: Город демонов / Constantine: City of Demons
Год выпуска: 2018
Жанр: Мультфильм, драма, ужасы, полнометражный
Выпущено: США, DC Entertainment
Режиссер: Даг Мерфи
В ролях: Мэтт Райан, Дэмиан О’Хейр, Лора Бэйли, Эмили О’Брайэн, Робин Аткин Даунс, Рэйчел Кимси, Джим Мескимен, Кевин Майкл Ричардсон, Рик Д. Вассерман
О фильме: Жизнь экзорциста Джона Константина может закончится в любой момент. Его убивает не только пагубная привычка выкуривать по десятку сигарет в день, но и утомительная работа, ведь изгонять демонов из человеческого мира — дело непростое. Каждое новое столкновение с силами зла заставляет Джона вступать в схватку, где победу способны принести не только острый ум и знание врага, но и любимый дробовик.
Качество: DVD-5
Видео: PAL 16:9 (720x576) VBR
Аудио: Русский, английский (Dolby AC3, 6 ch)
Продолжительность: 01:26:28
Перевод: Любительский (многоголосый закадровый) [Flarrow Films]
Cубтитры: русские, английские

Скриншоты


MediaInfo

Общее
Полное имя : D:\Constantine_City_of_Demons_(2018)_Blu-Ray-DVD5_Bobropandavar\VIDEO_TS\VTS_01_1.VOB
Формат : MPEG-PS
Размер файла : 1024 Мбайт
Продолжительность : 18 м. 31 с.
Режим общего битрейта : Переменный
Общий поток : 7726 Кбит/сек
Видео
Идентификатор : 224 (0xE0)
Формат : MPEG Video
Версия формата : Version 2
Профиль формата : Main@Main
Настройки формата : CustomMatrix / BVOP
Параметр BVOP формата : Да
Параметр матрицы формата : Выборочная
Параметр GOP формата : Variable
Продолжительность : 18 м. 31 с.
Вид битрейта : Переменный
Битрейт : 6677 Кбит/сек
Максимальный битрейт : 8600 Кбит/сек
Ширина : 720 пикселей
Высота : 576 пикселей
Соотношение сторон : 16:9
Частота кадров : 25,000 кадров/сек
Стандарт вещания : PAL
Цветовое пространство : YUV
Субдискретизация насыщенности : 4:2:0
Битовая глубина : 8 бит
Тип развёртки : Прогрессивная
Метод сжатия : С потерями
Бит/(Пиксели*Кадры) : 0.644
Временной код первого кадра : 00:00:00:00
Оригинал временного кода : Group of pictures header
Размер потока : 885 Мбайт (86%)
Аудио #1
Идентификатор : 189 (0xBD)-128 (0x80)
Формат : AC-3
Формат/Информация : Audio Coding 3
Режим смешивания : DVD-Video
Продолжительность : 18 м. 31 с.
Вид битрейта : Постоянный
Битрейт : 448 Кбит/сек
Каналы : 6 каналов
Расположение каналов : Front: L C R, Side: L R, LFE
Частота : 48,0 КГц
Частота кадров : 31,250 кадров/сек (1536 SPF)
Битовая глубина : 16 бит
Метод сжатия : С потерями
Размер потока : 59,4 Мбайт (6%)
ServiceKind/String : Complete Main
Аудио #2
Идентификатор : 189 (0xBD)-129 (0x81)
Формат : AC-3
Формат/Информация : Audio Coding 3
Режим смешивания : DVD-Video
Продолжительность : 18 м. 31 с.
Вид битрейта : Постоянный
Битрейт : 448 Кбит/сек
Каналы : 6 каналов
Расположение каналов : Front: L C R, Side: L R, LFE
Частота : 48,0 КГц
Частота кадров : 31,250 кадров/сек (1536 SPF)
Битовая глубина : 16 бит
Метод сжатия : С потерями
Размер потока : 59,4 Мбайт (6%)
ServiceKind/String : Complete Main
Текст #1
Идентификатор : 189 (0xBD)-32 (0x20)
Формат : RLE
Формат/Информация : Run-length encoding
Режим смешивания : DVD-Video
Текст #2
Идентификатор : 189 (0xBD)-33 (0x21)
Формат : RLE
Формат/Информация : Run-length encoding
Режим смешивания : DVD-Video
[Профиль] [ЛС]
Показать сообщения:    
Ответить на тему

Текущее время: 16-Фев 11:24

Часовой пояс: UTC + 3



Вы не можете начинать темы
Вы не можете отвечать на сообщения
Вы не можете редактировать свои сообщения
Вы не можете удалять свои сообщения
Вы не можете голосовать в опросах
Вы не можете прикреплять файлы к сообщениям
Вы не можете скачивать файлы