Discovery: Загадки планеты Земля / What on Earth? [1-4 сезоны: 1-48 серии из 48] (2015-2018) HDTVRip 720p от GeneralFilm

Reply to topic
 
Author Message

Starik60 ®

Gender: Male

Longevity: 1 year

Posts: 191

Location: Москва, Россия

Post 19-Nov-2018 16:58

[Quote]

Загадки планеты Земля / What on Earth?
Год выпуска: 2015-2018
Жанр: Документальный, наука, космос, история
Выпущено: США, Discovery Communications, LLC.
О фильме: Чем больше спутников запускают в космос, тем меньше на Земле остается слепых пятен. Теперь, когда снимки из космоса стали частью общедоступных программ, таких как «Google Earth», на суше и на море вдруг стали обнаруживаться различные аномалии. Увлекательная программа «Загадки планеты Земля» возвращается с новым сезоном, где мы продолжим исследовать тайны и загадки нашей планеты, включая легенды о людях-гигантах, воздвигнувших мегалит на Святой земле, ярко-розовое озеро, в котором предположительно можно найти неизвестные ранее виды животных и растений, и исчезновение куска льда величиной с город в Антарктиде

Качество: HDTVRip 720p
Видео: MPEG-4 AVC, ~ 4000 Кбит/с, 1280x720
Аудио: MP2, 2 ch, 192 Кбит/с
Продолжительность: 48 x ~ 00:44:00
Перевод: Профессиональный (одноголосый, закадровый), профессиональный (двухголосый, закадровый)

Скриншоты



MediaInfo

General
Unique ID : 324673963936239962970718284059683063452 (0xF441EE517A9E96C33191F0151664069C)
Complete name : H:\Раздачи 3\Загадки планеты Земля S01-04 720p GeneralFilm\4 сезон\01 Загадки планеты Земля GeneralFilm.mkv
Format : Matroska
Format version : Version 2
File size : 1.28 GiB
Duration : 43 min 49 s
Overall bit rate mode : Constant
Overall bit rate : 4 198 kb/s
Writing application : Lavf54.63.104
Writing library : Lavf54.63.104
Video
ID : 1
Format : AVC
Format/Info : Advanced Video Codec
Format profile : High@L4.1
Format settings : CABAC / 3 Ref Frames
Format settings, CABAC : Yes
Format settings, ReFrames : 3 frames
Codec ID : V_MPEG4/ISO/AVC
Duration : 43 min 49 s
Bit rate mode : Constant
Bit rate : 4 000 kb/s
Width : 1 280 pixels
Height : 720 pixels
Display aspect ratio : 16:9
Frame rate mode : Constant
Frame rate : 50.000 FPS
Standard : PAL
Color space : YUV
Chroma subsampling : 4:2:0
Bit depth : 8 bits
Scan type : Progressive
Bits/(Pixel*Frame) : 0.087
Stream size : 1.20 GiB (93%)
Default : No
Forced : No
Color range : Limited
Color primaries : BT.709
Transfer characteristics : BT.709
Matrix coefficients : BT.709
Audio
ID : 2
Format : MPEG Audio
Format version : Version 1
Format profile : Layer 2
Codec ID : A_MPEG/L2
Codec ID/Hint : MP2
Duration : 43 min 49 s
Bit rate mode : Constant
Bit rate : 192 kb/s
Channel(s) : 2 channels
Sampling rate : 48.0 kHz
Compression mode : Lossy
Delay relative to video : 24 ms
Stream size : 60.2 MiB (5%)
Language : English
Default : Yes
Forced : No

Название серий

1. сезон
01. Озеро крови.
02. Потерянный золотой город.
03. Секреты Сахары.
04. Северная Корея в огне.
05. Ледяная крепость нацистов.
2. сезон
01. Затерянный город в Калахари.
02. Тайна горы Судного Дня.
03. Пропавшие во Вьетнаме.
04. Кто построил Остров Суперзлодея?
05. Затерянная гробница Чингисхана.
3. сезон
01. Стоунхендж Святой земли.
02. Тайна рейса МН370.
03. Затерянные сокровища Большого каньона.
04. Тайны руин.
05. Тайна австралийской глубинки.
06. Ворота в рай.
07. Тайна свастики.
08. Побег Эль Чапо.
09. Призрак Зорро.
10. Символы в пустыне.
11. Кинжал Тутанхамона.
12. Проклятие морского чудовища.
13. В поисках Святого Копья.
14. Кровавая тайна затерянного города.
15. Утраченная империя Амазонии.
16. Врата ада в Сибири.
17. Большой каньон Арктики.
18. Поиски Эльдорадо.
19. Запретные города майя.
20. Проклятие Мерлина.
Благодарю за отличный постер ValkiriaGF
Релиз от:
[Profile] [PM]
Display posts:    
Reply to topic

Current time is: 10-Dec 20:25

All times are UTC + 3



You cannot post new topics in this forum
You cannot reply to topics in this forum
You cannot edit your posts in this forum
You cannot delete your posts in this forum
You cannot vote in polls in this forum
You cannot attach files in this forum
You cannot download files in this forum