Бисексуалка / The Bisexual [Серии 1-6 из 6] (2018) HDTV 1080p

Reply to topic
 
Author Message

sergey82 ®

Gender: Male

Longevity: 7 months

Posts: 160

Location: Украина

Post 19-Nov-2018 16:59

[Quote]

Бисексуалка / The Bisexual
Год выпуска: 2018
Жанр: Драма, комедия
Выпущено: Великобритания, Hootenanny
Режиссер: Дезире Акхаван
В ролях: Кевин Нику, Дезире Акхаван, Ева Бертистл, Брин Глисон, Максин Пик, Таня Рейнольдс, Джейсон Шиллингфорд, Кэсси Клер, Наоми Аки
О фильме: После сложного расставания со своей девушкой Лейла вынуждена съехаться с невротичным Гейбом и начать новую жизнь, в которой появляются не только новые женщины, но и мужчины. Лейла знакомит Гейба с миром лесбиянок, а Гейб даёт ей советы об отношениях с мужчинами. Не смотря на то, что Лейла чувствует себя свободной в обсуждении своих чувствах с Гейбом, ей сложно признаться в своей бисексуальности своим друзьям.
Качество: HDTV 1080p
Видео: MPEG-4 AVC, ~ 7000 Кбит/с, 1920x1080
Аудио: Русский, английский (AC3, 2 ch, 192 Кбит/с)
Продолжительность: 6 х ~ 00:45:00
Перевод: Профессиональный (многоголосый закадровый) [IdeaFilm]
Cубтитры: нет
Раздача с рекламными вставками

Скриншоты


MediaInfo

Общее
Уникальный идентификатор : 61199863389745578057564630477031641458 (0x2E0AAA3A20EB5C24B05EEF8820589172)
Полное имя : D:\Luis.and.His.Friends.from.Outer.Space.2018.WEB-DLRip(AVC).OlLanDGroup.mkv
Формат : Matroska
Версия формата : Version 4 / Version 2
Размер файла : 1,52 Гбайт
Продолжительность : 1 ч. 25 м.
Общий поток : 2537 Кбит/сек
Название фильма : Luis.and.His.Friends.from.Outer.Space.2018 #TorpedoUK#
Дата кодирования : UTC 2018-11-11 11:34:07
Программа кодирования : mkvmerge v25.0.0 ('Prog Noir') 64-bit
Библиотека кодирования : libebml v1.3.6 + libmatroska v1.4.9
Видео
Идентификатор : 1
Формат : AVC
Формат/Информация : Advanced Video Codec
Профиль формата : High@L4.1
Настройки формата : CABAC / 10 Ref Frames
Параметр CABAC формата : Да
Параметр RefFrames формата : 10 кадров
Идентификатор кодека : V_MPEG4/ISO/AVC
Продолжительность : 1 ч. 25 м.
Битрейт : 2154 Кбит/сек
Ширина : 1024 пикселя
Высота : 554 пикселя
Соотношение сторон : 1,85:1
Режим частоты кадров : Постоянный
Частота кадров : 24,000 кадра/сек
Цветовое пространство : YUV
Субдискретизация насыщенности : 4:2:0
Битовая глубина : 8 бит
Тип развёртки : Прогрессивная
Бит/(Пиксели*Кадры) : 0.158
Размер потока : 1,26 Гбайт (83%)
Библиотека кодирования : x264 core 146 r2538 121396c
Настройки программы : cabac=1 / ref=10 / deblock=1:-3:-3 / analyse=0x3:0x113 / me=umh / subme=10 / psy=1 / psy_rd=0.97:0.05 / mixed_ref=1 / me_range=48 / chroma_me=1 / trellis=2 / 8x8dct=1 / cqm=0 / deadzone=21,11 / fast_pskip=1 / chroma_qp_offset=-3 / threads=6 / lookahead_threads=1 / sliced_threads=0 / nr=0 / decimate=1 / interlaced=0 / bluray_compat=0 / constrained_intra=0 / bframes=11 / b_pyramid=2 / b_adapt=2 / b_bias=0 / direct=3 / weightb=1 / open_gop=0 / weightp=2 / keyint=240 / keyint_min=24 / scenecut=40 / intra_refresh=0 / rc_lookahead=40 / rc=2pass / mbtree=0 / bitrate=2154 / ratetol=1.0 / qcomp=0.60 / qpmin=0 / qpmax=69 / qpstep=4 / cplxblur=20.0 / qblur=0.5 / vbv_maxrate=50000 / vbv_bufsize=62500 / nal_hrd=none / filler=0 / ip_ratio=1.40 / pb_ratio=1.30 / aq=1:1.00
Язык : English
Default : Да
Forced : Нет
Аудио
Идентификатор : 2
Формат : AC-3
Формат/Информация : Audio Coding 3
Идентификатор кодека : A_AC3
Продолжительность : 1 ч. 25 м.
Вид битрейта : Постоянный
Битрейт : 384 Кбит/сек
Каналы : 6 каналов
Расположение каналов : Front: L C R, Side: L R, LFE
Частота : 48,0 КГц
Частота кадров : 31,250 кадров/сек (1536 SPF)
Битовая глубина : 16 бит
Метод сжатия : С потерями
Размер потока : 235 Мбайт (15%)
Заголовок : DUB [iTunes]
Язык : Russian
ServiceKind/String : Complete Main
Default : Да
Forced : Нет
Меню
00:00:00.000 : en:Глава 1
00:07:50.291 : en:Глава 2
00:15:41.957 : en:Глава 3
00:23:48.790 : en:Глава 4
00:29:10.790 : en:Глава 5
00:34:52.706 : en:Глава 6
00:42:35.664 : en:Глава 7
00:48:18.205 : en:Глава 8
00:53:51.413 : en:Глава 9
00:59:58.079 : en:Глава 10
01:06:02.662 : en:Глава 11
01:13:56.537 : en:Глава 12
[Profile] [PM]
Display posts:    
Reply to topic

Current time is: 18-Jun 21:02

All times are UTC + 3



You cannot post new topics in this forum
You cannot reply to topics in this forum
You cannot edit your posts in this forum
You cannot delete your posts in this forum
You cannot vote in polls in this forum
You cannot attach files in this forum
You cannot download files in this forum