Бойся желаний своих [1-4 серии из 4] (2018) WEB-DLRip от Files-x

Ответить на тему
 
Автор Сообщение

Nicodem ®

Пол: Мужской

Стаж: 2 месяца 28 дней

Сообщений: 172

Создавать темы 19-Ноя-2018 17:25

[Цитировать]

Бойся желаний своих
Год выпуска: 2018
Жанр: Мелодрама
Выпущено: Украина, Filmstream, Vileton production
Режиссер: Борис Рабей
В ролях: Ольга Гришина, Евгений Лаврентьев (II), Антон Денисенко, Татьяна Журавлева (II), Вячеслав Довженко, Владислав Онищенко, Прадьюмна Чаттерджи, Дарина Панасенко, Мирослава Филиппович, Фатима Горбенко, Екатерина Старюченко, Евгений Олейник, Руслан Никоненко, Павел Алдошин, Мария Северилова, Илана Шевченко, Инна Беликова, Анатолий Зиновенко
О фильме: У Даши Петренко практически идеальный брак: любимый и любящий муж Олег, достаток, хорошая работа. Для полного счастья не хватает лишь детей (Даша уже несколько лет тщетно пытается забеременеть) и… страсти. Даша, жизнь которой течет размеренно и предсказуемо, немного завидует соседке Нине Пасичник – та отчаянно ревнует своего красавца-мужа Валеру и периодически устраивает бурные сцены с битьем посуды и криками на весь подъезд. И вот однажды на общую лестничную площадку Петренко и Пасичников подбрасывают новорожденного ребенка…
Качество: WEB-DLRip
Видео: XviD, ~ 1792 Кбит/с, 720x400, 25 Кадр/с
Аудио: AC3, 2 ch, 192 Кбит/с
Продолжительность: 4 х 00:47:00
Перевод: Не требуется
Cубтитры: нет

Скриншоты




MediaInfo

Общее
Полное имя : C:\Users\DOM\Desktop\ВИДЕО\Бойся желаний своих.(2018).WEB-DLRip.by.Nicodem.Files-x\01.Бойся желаний своих.(2018).WEB-DLRip.by.Nicodem.Files-x.avi
Формат : AVI
Формат/Информация : Audio Video Interleave
Размер файла : 700 Мбайт
Продолжительность : 49 м.
Общий поток : 1993 Кбит/сек
Программа кодирования : VirtualDubMod 1.5.10.3 | www.virtualdub-fr.org || (build 2550/release)
Библиотека кодирования : VirtualDubMod build 2550/release
Видео
Идентификатор : 0
Формат : MPEG-4 Visual
Профиль формата : Advanced Simple@L5
Параметр BVOP формата : 1
Параметр QPel формата : Нет
Параметр GMC формата : Без точки перехода
Параметр матрицы формата : Выборочная
Идентификатор кодека : XVID
Идентификатор кодека/Подсказка : XviD
Продолжительность : 49 м.
Битрейт : 1792 Кбит/сек
Ширина : 720 пикс.
Высота : 400 пикс.
Соотношение сторон : 16:9
Частота кадров : 25,000 кадр/сек
Цветовое пространство : YUV
Подвыборка цветности : 4:2:0
Битовая глубина : 8 бит
Тип развёртки : Прогрессивная
Метод сжатия : С потерями
Бит/(Пиксели*Кадры) : 0.249
Размер потока : 629 Мбайт (90%)
Библиотека кодирования : XviD 73
Аудио
Идентификатор : 1
Формат : AC-3
Формат/Информация : Audio Coding 3
Расширение режима : CM (complete main)
Идентификатор кодека : 2000
Продолжительность : 49 м.
Вид битрейта : Постоянный
Битрейт : 192 Кбит/сек
Каналы : 2 канала
Расположение каналов : Front: L R
Частота : 48,0 КГц
Битовая глубина : 16 бит
Метод сжатия : С потерями
Размер потока : 67,4 Мбайт (10%)
Выравнивание : Разделение по промежуткам
Продолжительность промежутка : 40 мс. (1,00 видеокадр)
Время предзагрузки промежутка : 500 ms
Релиз от:

Релиз подготовлен R.G.Files-x

[Профиль] [ЛС]
Показать сообщения:    
Ответить на тему

Текущее время: 16-Фев 11:19

Часовой пояс: UTC + 3



Вы не можете начинать темы
Вы не можете отвечать на сообщения
Вы не можете редактировать свои сообщения
Вы не можете удалять свои сообщения
Вы не можете голосовать в опросах
Вы не можете прикреплять файлы к сообщениям
Вы не можете скачивать файлы