Discovery. На краю Аляски / Edge of Alaska [1-4 сезоны: 1-32 серии из 32] (2014-2017) HDTVRip от GeneralFilm

Ответить на тему
 
Автор Сообщение

Starik60 ®

Пол: Мужской

Стаж: 3 месяца 4 дня

Сообщений: 111

Откуда: Москва, Россия

Создавать темы 15-Ноя-2018 11:37

[Цитировать]

На краю Аляски / Edge of Alaska
Год выпуска: 2014-2017
Жанр: Документальный, приключения, выживание
Выпущено: США, Twofour Broadcast, Discovery Channel
В ролях: Нил Дэриш, Гэри Грин, Джереми Келлер
О фильме: В одном из самых диких уголков Аляски, на расстоянии в 150 километров от ближайшего населенного пункта расположен город Маккарти – пристанище для тех, кто решил по той или иной причине отказаться от всех благ цивилизации. В начале прошлого века он был одним из центров золотой лихорадки и имел репутацию одного из самых оживленных городов этого региона – однако сейчас все это осталась далеко в прошлом; сегодня население Маккарти насчитывает всего 42 человека. В новой программе «На краю Аляски» вы узнаете, как жители Маккарти выживают в этом крайне недружелюбном месте, и ради чего они добровольно покинули свой дом, променяв спокойную жизнь на постоянную борьбу с дикой природой и суровыми погодными условиями. Каждый из героев преследует свои цели – кто-то хочет восстановить былую славу города, а кто-то просто убежать от своего прошлого. Однако даже самые заветные мечты отходят на второй план, когда каждый день становится настоящим испытанием на прочность.

Качество: HDTVRip
Видео: XviD, ~ 1600 Кбит/с, 720x400
Аудио: AC3, 2 ch, 192 Кбит/c
Продолжительность: 8 x ~ 00:44:00
Перевод: Профессиональный (многоголосый, закадровый)

Скриншоты



MediaInfo

General
Complete name : H:\Раздачи 3\На краю Аляски,S01-04 GeneralFilm\Сезон 4\01 На краю Аляски GeneralFilm.avi
Format : AVI
Format/Info : Audio Video Interleave
File size : 558 MiB
Duration : 43 min 18 s
Overall bit rate : 1 802 kb/s
Writing application : VirtualDubMod 1.5.10.3 | www.virtualdub-fr.org || (build 2550/release)
Writing library : VirtualDubMod build 2550/release
Video
ID : 0
Format : MPEG-4 Visual
Format profile : Advanced Simple@L5
Format settings : BVOP1 / Custom Matrix
Format settings, BVOP : 1
Format settings, QPel : No
Format settings, GMC : No warppoints
Format settings, Matrix : Custom
Codec ID : XVID
Codec ID/Hint : XviD
Duration : 43 min 18 s
Bit rate : 1 600 kb/s
Width : 720 pixels
Height : 400 pixels
Display aspect ratio : 16:9
Frame rate : 25.000 FPS
Color space : YUV
Chroma subsampling : 4:2:0
Bit depth : 8 bits
Scan type : Progressive
Compression mode : Lossy
Bits/(Pixel*Frame) : 0.222
Stream size : 496 MiB (89%)
Writing library : XviD 1.2.1 (UTC 2008-12-04)
Audio
ID : 1
Format : AC-3
Format/Info : Audio Coding 3
Commercial name : Dolby Digital
Codec ID : 2000
Duration : 43 min 18 s
Bit rate mode : Constant
Bit rate : 192 kb/s
Channel(s) : 2 channels
Channel layout : L R
Sampling rate : 48.0 kHz
Frame rate : 31.250 FPS (1536 SPF)
Bit depth : 16 bits
Compression mode : Lossy
Stream size : 59.5 MiB (11%)
Alignment : Split accross interleaves
Interleave, duration : 40 ms (1.00 video frame)
Interleave, preload duratio : 500 ms
Service kind : Complete Main

Название серий

Сезон 2.
01. Волки у порога.
02. Голод стучится в дверь.
03. Защита границ.
04. Слабеющая хватка зимы.
05. Начало.
06. Возвращение к истокам.
07. У края границы.
08. Новый МакКарти.
Сезон 3.
01. Борьба за Маккарти.
Нил Дэриш готов открыть основную шахту для туристов, но новый приезжий создает угрозу для его империи. У Джереми Келлера новая затея: он собирается обзавестись фермой.
02. Сделка с дьяволом.
03. Посторонний
Нил перерасходовал бюджет на свой новый проект по строительству гостиницы, и его соинвестор требует компенсации. Поехав за новыми запасами, Джереми возвращается с Джейсоном Лобо.
04. Оттепель и заказ
Нил проталкивает свои планы превращения заброшенных медных рудников в туристический объект. К концу зимы запасы продовольствия на исходе, и жители Маккарти должны сплотиться.
05. Падение.
Нил двигает город ближе к краю, поскольку он начинает первый тур Основного источника, но осложнения могли создать конец работе его жизни. Джереми и Гэри предпринимают охоту на медведя, но сталкиваются с чем-то еще более опасным.
06. Лес Дедвуда.
Джереми, несмотря на половодье, пытается заготовить древесину для нового проекта Нила. Нил решает рискнуть и откопать новый вход на рудник. Дженни готовится к пополнению семейства.
07. Старик на горе.
Джереми борется с бурной рекой в поисках доставки древесины для проекта Нила. Нил ставит весь проект под удар при раскопках нового входа. Дженни готовится улучшать Маккарти.
08. Никакая сдача.
Своим туристическим проектом Нил бросает вызов и природе, и местным жителям. А когда раскрываются его тайные планы строительства, Маккарти предъявляет ему ультиматум.
Сезон 4.
01. Потерянный во льдах.
02. По тонкому льду.
03. Бурелом.
04. Страшный серый волк.
05. Сделка с дьяволом.
06. Весенняя лихорадка.
07. Стройка всем миром.
08. Ветер перемен.
Благодарю за отличный постер ValkiriaGF
Релиз от:
[Профиль] [ЛС]
Показать сообщения:    
Ответить на тему

Текущее время: 16-Фев 21:36

Часовой пояс: UTC + 3



Вы не можете начинать темы
Вы не можете отвечать на сообщения
Вы не можете редактировать свои сообщения
Вы не можете удалять свои сообщения
Вы не можете голосовать в опросах
Вы не можете прикреплять файлы к сообщениям
Вы не можете скачивать файлы