Возвращение к себе [1-4 серии из 4] (2018) WEBRip от Files-x

Ответить на тему
 
Автор Сообщение

Nicodem ®

Пол: Мужской

Стаж: 2 месяца 29 дней

Сообщений: 172

Создавать темы 19-Ноя-2018 17:35

[Цитировать]

Возвращение к себе
Год выпуска: 2018
Жанр: Мелодрама
Выпущено: Россия, Украина, Кинокомпания "Star Media"
Режиссер: Ева Стрельникова
В ролях: Татьяна Лялина, Дмитрий Сова, Игорь Иванов, Олег Масленников, Александр Крючков, Евгения Мягонькая, Ли Берлинская, Олег Москаленко, Ирина Тамим, Елена Лаврова, Сергей Радченко
О фильме: После победы в конкурсе красоты "Мисс Счастливое" Лену начинает преследовать маньяк. Он шлет ей письма с угрозами, звонит, нападает на темной улице и насилует девушку. Полиция разводит руками. Лена переезжает в другой город, но призраки прошлого продолжают ее преследовать. Девушке предстоит встретиться со своим страхом лицом к лицу и победить его...
Качество: WEBRip
Видео: XviD, ~ 1860 Кбит/с, 720x400, 25 Кадр/с
Аудио: AC3, 2 ch, 192 Кбит/с
Продолжительность: 4 х 00:47:00
Перевод: Не требуется
Cубтитры: нет

Скриншоты




MediaInfo

Общее
Полное имя : C:\Users\DOM\Desktop\ВИДЕО\Возвращение к себе.(2018).WEBRip.by.Nicodem.Files-x\01.Возвращение к себе.(2018).WEBRip.by.Nicodem.Files-x.avi
Формат : AVI
Формат/Информация : Audio Video Interleave
Размер файла : 698 Мбайт
Продолжительность : 47 м.
Общий поток : 2062 Кбит/сек
Программа кодирования : VirtualDubMod 1.5.10.3 | www.virtualdub-fr.org || (build 2550/release)
Библиотека кодирования : VirtualDubMod build 2550/release
Видео
Идентификатор : 0
Формат : MPEG-4 Visual
Профиль формата : Advanced Simple@L5
Параметр BVOP формата : 1
Параметр QPel формата : Нет
Параметр GMC формата : Без точки перехода
Параметр матрицы формата : Выборочная
Идентификатор кодека : XVID
Идентификатор кодека/Подсказка : XviD
Продолжительность : 47 м.
Битрейт : 1860 Кбит/сек
Ширина : 720 пикс.
Высота : 400 пикс.
Соотношение сторон : 16:9
Частота кадров : 25,000 кадр/сек
Цветовое пространство : YUV
Подвыборка цветности : 4:2:0
Битовая глубина : 8 бит
Тип развёртки : Прогрессивная
Метод сжатия : С потерями
Бит/(Пиксели*Кадры) : 0.258
Размер потока : 630 Мбайт (90%)
Библиотека кодирования : XviD 73
Аудио
Идентификатор : 1
Формат : AC-3
Формат/Информация : Audio Coding 3
Расширение режима : CM (complete main)
Идентификатор кодека : 2000
Продолжительность : 47 м.
Вид битрейта : Постоянный
Битрейт : 192 Кбит/сек
Каналы : 2 канала
Расположение каналов : Front: L R
Частота : 48,0 КГц
Битовая глубина : 16 бит
Метод сжатия : С потерями
Размер потока : 65,0 Мбайт (9%)
Выравнивание : Разделение по промежуткам
Продолжительность промежутка : 40 мс. (1,00 видеокадр)
Время предзагрузки промежутка : 500 ms
Релиз от:

Релиз подготовлен R.G.Files-x

[Профиль] [ЛС]
Показать сообщения:    
Ответить на тему

Текущее время: 16-Фев 21:32

Часовой пояс: UTC + 3



Вы не можете начинать темы
Вы не можете отвечать на сообщения
Вы не можете редактировать свои сообщения
Вы не можете удалять свои сообщения
Вы не можете голосовать в опросах
Вы не можете прикреплять файлы к сообщениям
Вы не можете скачивать файлы