Разоблачение Единорога / Единорог [1-4 серии из 4] (2018) WEB-DLRip от Files-x

Reply to topic
 
Author Message

Nicodem ®

Gender: Male

Longevity: 5 months 7 days

Posts: 178

Post 19-Nov-2018 17:59

[Quote]

Разоблачение Единорога / Единорог
Год выпуска: 2018
Жанр: Детектив
Выпущено: Россия, Студия «Яуза-Фильм»
Режиссер: Вячеслав Лавров
В ролях: Елена Полянская, Алексей Анищенко, Илья Ермолов, Семён Лопатин, Дмитрий Богданов, Алексей Назаров (II)
О фильме: Лёня Кудрявцев – типичный неудачник. Зануда, ботаник, научный работник с нищенской зарплатой. Коля Журавлёв – его полная противоположность: любимец женщин, баловень судьбы, без пяти минут замминистра. Ирония судьбы в том, что оба они любят одну женщину – Лизу Баталову. А Лиза любит искусство. В настоящий момент она разыскивает редкую гравюру с единорогом, которая бесследно пропала много лет назад. Пока Лиза перерывает архивы в надежде выйти на след таинственного единорога, в Москве одного за другим убивают владельцев гравюр с похожими сюжетами. Чем ближе к разгадке Лиза, тем опаснее становится игра. Оба мужчины хотят защитить её – но каждый по-своему.

Качество: WEB-DLRip
Видео: XviD, ~ 1501 Кбит/с, 720x400, 25 Кадр/с
Аудио: AC3, 2 ch, 192 Кбит/с
Продолжительность: 4 х 00:47:00
Перевод: Не требуется
Cубтитры: нет

Скриншоты


MediaInfo

Общее
Полное имя : C:\Users\DOM\Downloads\Разоблачение Единорога.2018.WEB-DLRip.Files-x\01.Разоблачение Единорога.2018.WEB-DLRip.Files-x.avi
Формат : AVI
Формат/Информация : Audio Video Interleave
Размер файла : 565 Мбайт
Продолжительность : 46 м.
Общий поток : 1702 Кбит/сек
Программа кодирования : VirtualDubMod 1.5.10.3 | www.virtualdub-fr.org || (build 2550/release)
Библиотека кодирования : VirtualDubMod build 2550/release
Видео
Идентификатор : 0
Формат : MPEG-4 Visual
Профиль формата : Advanced Simple@L5
Параметр BVOP формата : 1
Параметр QPel формата : Нет
Параметр GMC формата : Без точки перехода
Параметр матрицы формата : Выборочная
Идентификатор кодека : XVID
Идентификатор кодека/Подсказка : XviD
Продолжительность : 46 м.
Битрейт : 1501 Кбит/сек
Ширина : 720 пикс.
Высота : 400 пикс.
Соотношение сторон : 16:9
Частота кадров : 25,000 кадр/сек
Цветовое пространство : YUV
Подвыборка цветности : 4:2:0
Битовая глубина : 8 бит
Тип развёртки : Прогрессивная
Метод сжатия : С потерями
Бит/(Пиксели*Кадры) : 0.208
Размер потока : 498 Мбайт (88%)
Библиотека кодирования : XviD 73
Аудио
Идентификатор : 1
Формат : AC-3
Формат/Информация : Audio Coding 3
Расширение режима : CM (complete main)
Идентификатор кодека : 2000
Продолжительность : 46 м.
Вид битрейта : Постоянный
Битрейт : 192 Кбит/сек
Каналы : 2 канала
Расположение каналов : Front: L R
Частота : 48,0 КГц
Битовая глубина : 16 бит
Метод сжатия : С потерями
Размер потока : 63,8 Мбайт (11%)
Выравнивание : Разделение по промежуткам
Продолжительность промежутка : 40 мс. (1,00 видеокадр)
Время предзагрузки промежутка : 500 ms
Релиз от:
[Profile] [PM]
Display posts:    
Reply to topic

Current time is: 25-Apr 08:15

All times are UTC + 3



You cannot post new topics in this forum
You cannot reply to topics in this forum
You cannot edit your posts in this forum
You cannot delete your posts in this forum
You cannot vote in polls in this forum
You cannot attach files in this forum
You cannot download files in this forum