Discovery. На краю Аляски / Edge of Alaska [1-4 сезоны: 1-32 серии из 32] (2014-2017) HDTVRip 720р от GeneralFilm

Ответить на тему
 
Автор Сообщение

Starik60 ®

Пол: Мужской

Стаж: 4 месяца 8 дней

Сообщений: 119

Откуда: Москва, Россия

Создавать темы 15-Ноя-2018 11:46

[Цитировать]

На краю Аляски / Edge of Alaska
Год выпуска: 2014-2017
Жанр: Документальный, приключения, выживание
Выпущено: США, Twofour Broadcast, Discovery Channel
В ролях: Нил Дэриш, Гэри Грин, Джереми Келлер
О фильме: В одном из самых диких уголков Аляски, на расстоянии в 150 километров от ближайшего населенного пункта расположен город Маккарти – пристанище для тех, кто решил по той или иной причине отказаться от всех благ цивилизации. В начале прошлого века он был одним из центров золотой лихорадки и имел репутацию одного из самых оживленных городов этого региона – однако сейчас все это осталась далеко в прошлом; сегодня население Маккарти насчитывает всего 42 человека. В новой программе «На краю Аляски» вы узнаете, как жители Маккарти выживают в этом крайне недружелюбном месте, и ради чего они добровольно покинули свой дом, променяв спокойную жизнь на постоянную борьбу с дикой природой и суровыми погодными условиями. Каждый из героев преследует свои цели – кто-то хочет восстановить былую славу города, а кто-то просто убежать от своего прошлого. Однако даже самые заветные мечты отходят на второй план, когда каждый день становится настоящим испытанием на прочность.

Качество: HDTVRip
Видео: XviD, ~ 1600 Кбит/с, 720x400
Аудио: AC3, 2 ch, 192 Кбит/c
Продолжительность: 8 x ~ 00:44:00
Перевод: Профессиональный (многоголосый, закадровый)

Скриншоты



MediaInfo

Общее
Уникальный идентификатор : 241419830606929443992851160008005166326 (0xB59FC4A1C63013963D5CF281578AA4F6)
Полное имя : D:\На краю Аляски,S01-04 720р GeneralFilm\Сезон 1\01. На краю Аляски.mkv
Формат : Matroska
Версия формата : Version 2
Размер файла : 1,29 Гбайт
Продолжительность : 43 м. 56 с.
Режим общего битрейта : Переменный
Общий поток : 4192 Кбит/сек
Программа кодирования : Lavf54.63.104
Библиотека кодирования : Lavf54.63.104
Видео
Идентификатор : 1
Формат : AVC
Формат/Информация : Advanced Video Codec
Профиль формата : High@L4.1
Настройки формата : CABAC / 3 Ref Frames
Параметр CABAC формата : Да
Параметр RefFrames формата : 3 кадра
Идентификатор кодека : V_MPEG4/ISO/AVC
Продолжительность : 43 м. 56 с.
Вид битрейта : Переменный
Битрейт : 3916 Кбит/сек
Максимальный битрейт : 4000 Кбит/сек
Ширина : 1280 пикселей
Высота : 720 пикселей
Соотношение сторон : 16:9
Режим частоты кадров : Постоянный
Частота кадров : 30,000 кадров/сек
Стандарт вещания : NTSC
Цветовое пространство : YUV
Субдискретизация насыщенности : 4:2:0
Битовая глубина : 8 бит
Тип развёртки : Прогрессивная
Бит/(Пиксели*Кадры) : 0.142
Размер потока : 1,20 Гбайт (93%)
Default : Нет
Forced : Нет
Цветовой диапазон : Limited
Основные цвета : BT.709
Характеристики трансфера : BT.709
Коэффициенты матрицы : BT.709
Аудио
Идентификатор : 2
Формат : MPEG Audio
Версия формата : Version 1
Профиль формата : Layer 2
Идентификатор кодека : A_MPEG/L2
Идентификатор кодека/Подсказка : MP2
Продолжительность : 43 м. 56 с.
Вид битрейта : Постоянный
Битрейт : 192 Кбит/сек
Каналы : 2 канала
Частота : 48,0 КГц
Метод сжатия : С потерями
Размер потока : 60,3 Мбайт (5%)
Язык : English
Default : Да
Forced : Нет

Название серий

Сезон 2.
01. Волки у порога.
02. Голод стучится в дверь.
03. Защита границ.
04. Слабеющая хватка зимы.
05. Начало.
06. Возвращение к истокам.
07. У края границы.
08. Новый МакКарти.
Сезон 3.
01. Борьба за Маккарти.
Нил Дэриш готов открыть основную шахту для туристов, но новый приезжий создает угрозу для его империи. У Джереми Келлера новая затея: он собирается обзавестись фермой.
02. Сделка с дьяволом.
03. Посторонний
Нил перерасходовал бюджет на свой новый проект по строительству гостиницы, и его соинвестор требует компенсации. Поехав за новыми запасами, Джереми возвращается с Джейсоном Лобо.
04. Оттепель и заказ
Нил проталкивает свои планы превращения заброшенных медных рудников в туристический объект. К концу зимы запасы продовольствия на исходе, и жители Маккарти должны сплотиться.
05. Падение.
Нил двигает город ближе к краю, поскольку он начинает первый тур Основного источника, но осложнения могли создать конец работе его жизни. Джереми и Гэри предпринимают охоту на медведя, но сталкиваются с чем-то еще более опасным.
06. Лес Дедвуда.
Джереми, несмотря на половодье, пытается заготовить древесину для нового проекта Нила. Нил решает рискнуть и откопать новый вход на рудник. Дженни готовится к пополнению семейства.
07. Старик на горе.
Джереми борется с бурной рекой в поисках доставки древесины для проекта Нила. Нил ставит весь проект под удар при раскопках нового входа. Дженни готовится улучшать Маккарти.
08. Никакая сдача.
Своим туристическим проектом Нил бросает вызов и природе, и местным жителям. А когда раскрываются его тайные планы строительства, Маккарти предъявляет ему ультиматум.
Сезон 4.
01. Потерянный во льдах.
02. По тонкому льду.
03. Бурелом.
04. Страшный серый волк.
05. Сделка с дьяволом.
06. Весенняя лихорадка.
07. Стройка всем миром.
08. Ветер перемен.
Благодарю за отличный постер ValkiriaGF
Релиз от:
[Профиль] [ЛС]
Показать сообщения:    
Ответить на тему

Текущее время: 20-Мар 13:16

Часовой пояс: UTC + 3



Вы не можете начинать темы
Вы не можете отвечать на сообщения
Вы не можете редактировать свои сообщения
Вы не можете удалять свои сообщения
Вы не можете голосовать в опросах
Вы не можете прикреплять файлы к сообщениям
Вы не можете скачивать файлы