Бюро легенд / Le Bureau des Legendes [1-4 сезоны: 1-40 серии из 40] (2015-2018) HDRip от tahiy

Reply to topic
 
Author Message

tahiy ®

Gender: Male

Longevity: 1 year

Posts: 4

Post 19-Nov-2018 20:38

[Quote]

Бюро легенд / Le Bureau des Legendes
Год выпуска: 2015-2018
Жанр: Драма, триллер, шпионаж
Выпущено: Франция, Federation Entertainment
Режиссер: Матьё Деми, Элье Систерн, Эрик Рошан, Жан-Марк Муту, Эли Важеман
В ролях: Матьё Кассовиц, Жан-Пьер Дарруссен, Сара Жиродо, Флоранс Луаре, Жиль Коэн, Зинеб Трики, Александр Брассёр, Леа Друкер, Жан-Мари Роллен, Михаэль Абитебул, Жонатан Заккаи, Брэд Лиленд, Аделин Моро, Эмили Шенэ, Доминик Гулд, Альба Гайя Крагеде Беллуджи, Патрик Лигар, Полин Этьен, Матьё Деми, Лили Галлан, Ивонник Мюллер, Юсеф Хаджди, Гвенаэль Клоз, Сара Каземи, Мехди Неббу, Алиса Белаиди, Нассер Мемарзиа
О фильме: Во французском Генеральном директорате внешней безопасности работает Бюро – отдел, занимающийся подготовкой секретных агентов французской разведки, направляемых на работу в ключевые точки по всему миру, где они годами живут под чужими именами. Один из агентов французской разведки Гийом «Малотрю» Дебайи возвращается в штаб-квартиру после шестилетней миссии в Сирии. Однако процесс его адаптации к нормальной жизни оказывается сложным, особенно, когда он узнаёт, что Надя, женщина, в которую он влюбился в Дамаске, теперь живёт в Париже.

Качество: HDRip
Видео: XviD, ~ 1400 Кбит/с, 720x400
Аудио: Русский (MP3, 2 ch, 128 Кбит/с)
Продолжительность: 40 x ~ 00:55:00
Перевод: Профессиональный многоголосый (Первый канал, Spike)

Скриншоты



MediaInfo

Le Bureau des Legendes_ [tahiy]\01_ [sezon]\Le Bureau des Legendes.(S01E01)_ [tahiy].avi
Формат : AVI
Формат/Информация : Audio Video Interleave
Размер файла : 558 Мбайт
Продолжительность : 54 м. 12 с.
Общий поток : 1439 Кбит/сек
Программа кодирования : VirtualDubMod 1.5.10.3 | www.virtualdub-fr.org || (build 2550/release)
Библиотека кодирования : VirtualDubMod build 2550/release
Видео
Идентификатор : 0
Формат : MPEG-4 Visual
Профиль формата : Advanced Simple@L5
Настройки формата : BVOP1
Параметр BVOP формата : 1
Параметр QPel формата : Нет
Параметр GMC формата : Без точки перехода
Параметр матрицы формата : Default (MPEG)
Идентификатор кодека : XVID
Идентификатор кодека/Подсказка : XviD
Продолжительность : 54 м. 12 с.
Битрейт : 1301 Кбит/сек
Ширина : 720 пикселей
Высота : 400 пикселей
Соотношение сторон : 16:9
Частота кадров : 25,000 кадров/сек
Цветовое пространство : YUV
Субдискретизация насыщенности : 4:2:0
Битовая глубина : 8 бит
Тип развёртки : Прогрессивная
Метод сжатия : С потерями
Бит/(Пиксели*Кадры) : 0.181
Размер потока : 504 Мбайт (90%)
Библиотека кодирования : XviD 73
Аудио
Идентификатор : 1
Формат : MPEG Audio
Версия формата : Version 1
Профиль формата : Layer 3
Настройки формата : Joint stereo / MS Stereo
Идентификатор кодека : 55
Идентификатор кодека/Подсказка : MP3
Продолжительность : 54 м. 12 с.
Вид битрейта : Постоянный
Битрейт : 128 Кбит/сек
Каналы : 2 канала
Частота : 48,0 КГц
Частота кадров : 41,667 кадра/сек (1152 SPF)
Метод сжатия : С потерями
Размер потока : 49,6 Мбайт (9%)
Выравнивание : Соединение по промежуткам
Продолжительность промежутка : 40 мс. (1,00 видеокадр)
Время предзагрузки промежутка : 504 мс.
Библиотека кодирования : LAME3.99r
Настройки программы : -m j -V 4 -q 2 -lowpass 17 -b 128

О Переводе

tahiy
Релиз без рекламы
Перевод:
1-2 сезоны - Профессиональный многоголосый: Первый канал
3-4 сезоны - Профессиональный многоголосый: Эй Би Видео по заказу телеканала Spike
За первый сезон спасибо: Khoren
За второй сезон спасибо: Khoren
За третий и четвертый сезон спасибо: сайту EniaHD, за исходник 3 и 4 сезона спасибо: Atla22
Запись и обработка звука: Wilmots & Zgurvas, за что им Большое Спасибо!
Релиз от:
[Profile] [PM]

Якиван

Gender: Male

Longevity: 9 months 25 days

Posts: 1

Post 15-Feb-2019 23:22 (after 2 months 26 days)

[Quote]

Бюро легенд / Le Bureau des Legendes [1-4 сезоны: 1-40 серии из 40] (2015-2018) HDRip от tahiy
[Profile] [PM]
Display posts:    
Reply to topic

Current time is: 13-Dec 14:55

All times are UTC + 3



You cannot post new topics in this forum
You cannot reply to topics in this forum
You cannot edit your posts in this forum
You cannot delete your posts in this forum
You cannot vote in polls in this forum
You cannot attach files in this forum
You cannot download files in this forum