Чисто московские убийства [1 сезон: 1-8 серии из 8] (2017) WEB-DL 720p

Reply to topic
 
Author Message

Monk ®

Gender: Male

Longevity: 7 months 12 days

Posts: 7143

Location: Казань

Post 19-Nov-2018 21:07

[Quote]

Чисто московские убийства Год выпуска: 2017
Жанр: Криминал, детектив
Выпущено: Россия, Маурис Филм
Режиссер: Филипп Коршунов
В ролях: Людмила Чурсина, Сергей Беляев, Дмитрий Мазуров, Татьяна Курова, Ирина Крутик, Александр Яцко, Аглая Тарасова, Дарья Дроздовская, Екатерина Семёнова (I), Ольга Богданова, Марианна Шульц, Серафима Низовская, Константин Быков, Евгения Бордзиловская, Алла Будницкая
О фильме: Владелица сети элитных салонов красоты Екатерина Власова — женщина с очень скверным характером. Она своенравна, цинична и крайне упряма. Благодаря этим свойствам она создала с нуля свою «империю», — а старомодные представления о границе между добром и злом помогают ей процветать. Но жизнь в столице заставляет Екатерину проявить себя в новом амплуа — теперь со своим фирменным упрямством она раскрывает преступные замыслы и криминальные интриги. Даже следователь Шилов, поначалу не скрывавший своей антипатии к «вездесущей старухе», вынужден признать ее талант к дедукции. Чтобы успешно ловить преступников, Екатерина должна идти в ногу со временем, — и она упорно осваивает новые технологии и гаджеты...

Качество: WEB-DL 720p
Видео: MPEG-4 AVC, 1600 Кбит/с, 1280x720, 25 кадр/c
Аудио: АС3, 2 ch, 192 Кбит/с
Продолжительность: 8 х ~ 00:44:00
Перевод: Не требуется

Скриншоты



MediaInfo

Общее
Уникальный идентификатор : 186197537702322668575605711283290711889 (0x8C14576244B8BAEB8344D3A4CA192751)
Полное имя : D:\Chisto.moskovskie.ubijstva.2017.WEB-DL.(720p).kinozal.by.Olyanchik\01.Chisto.moskovskie.ubijstva.2017.WEB-DL.(720p).kinozal.by.Olyanchik.mkv
Формат : Matroska
Версия формата : Version 4 / Version 2
Размер файла : 555 Мбайт
Продолжительность : 44 м. 4 с.
Общий поток : 1759 Кбит/сек
Дата кодирования : UTC 2017-10-08 10:15:25
Программа кодирования : mkvmerge v9.6.0 ('Slave To Your Mind') 64bit
Библиотека кодирования : libebml v1.3.4 + libmatroska v1.4.5
Видео
Идентификатор : 1
Формат : AVC
Формат/Информация : Advanced Video Codec
Профиль формата : Main@L3.1
Настройки формата : CABAC / 3 Ref Frames
Параметр CABAC формата : Да
Параметр RefFrames формата : 3 кадра
Идентификатор кодека : V_MPEG4/ISO/AVC
Продолжительность : 44 м. 4 с.
Битрейт : 1532 Кбит/сек
Ширина : 1280 пикселей
Высота : 720 пикселей
Соотношение сторон : 16:9
Режим частоты кадров : Постоянный
Частота кадров : 25,000 кадров/сек
Цветовое пространство : YUV
Субдискретизация насыщенности : 4:2:0
Битовая глубина : 8 бит
Тип развёртки : Прогрессивная
Бит/(Пиксели*Кадры) : 0.067
Размер потока : 483 Мбайт (87%)
Default : Да
Forced : Нет
Цветовой диапазон : Limited
Основные цвета : BT.709
Характеристики трансфера : BT.709
Коэффициенты матрицы : BT.709
Аудио
Идентификатор : 2
Формат : AC-3
Формат/Информация : Audio Coding 3
Идентификатор кодека : A_AC3
Продолжительность : 44 м. 4 с.
Вид битрейта : Постоянный
Битрейт : 192 Кбит/сек
Каналы : 2 канала
Расположение каналов : Front: L R
Частота : 44,1 КГц
Частота кадров : 28,711 кадров/сек (1536 SPF)
Битовая глубина : 16 бит
Метод сжатия : С потерями
Размер потока : 60,5 Мбайт (11%)
ServiceKind/String : Complete Main
Default : Да
Forced : Нет
[Profile] [PM]
Display posts:    
Reply to topic

Current time is: 26-Jun 14:00

All times are UTC + 3



You cannot post new topics in this forum
You cannot reply to topics in this forum
You cannot edit your posts in this forum
You cannot delete your posts in this forum
You cannot vote in polls in this forum
You cannot attach files in this forum
You cannot download files in this forum