Человек-паук: Нет пути домой / Spider-Man: No Way Home (2021) BDRip 1080p [DUB] от R.G.Generalfilm | СинеЛаб СаундМикс

Reply to topic
 
Author Message

White Smoke ®

Gender: Male

Longevity: 3 years 10 months

Posts: 247

Post 16-Mar-2022 19:35

[Quote]

Человек-паук: Нет пути домой / Spider-Man: No Way Home Год выпуска: 2021
Жанр: фантастика, боевик, приключения, фэнтези
Выпущено: США | Columbia Pictures Corporation, Marvel Studios Inc., Pascal Pictures, Sony Pictures Entertainment (SPE)
Режиссер: Джон Уоттс
В ролях: Том Холланд, Зендея, Бенедикт Камбербэтч, Мариса Томей, Уиллем Дефо, Альфред Молина, Джейми Фокс, Томас Хейден Чёрч, Рис Иванс, Джейкоб Баталон
О фильме: Жизнь и репутация Питера Паркера оказываются под угрозой, поскольку Мистерио раскрыл всему миру тайну личности Человека-паука. Пытаясь исправить ситуацию, Питер обращается за помощью к Стивену Стрэнджу, но вскоре всё становится намного опаснее.

Качество: BDRip 1080p
Видео: MPEG-4 AVC, 1920x800 (2.40:1), 23.976 fps, 7 900 kb/s (0.215 bit/pixel)
Аудио: русский, AC3, 48.0 kHz, 6 ch, 384 kb/s
Продолжительность: 02:28:09
Перевод: Дублированный СинеЛаб СаундМикс
Cубтитры: Русские (Forced)

Скриншоты

MediaInfo

General
Unique ID : 177769836487199423877044524373236098101 (0x85BD39A21DD5305E9907DABE4589A435)
Complete name : C:\Spider-Man.No.Way.Home.2021.BDRip-1080p.Rip.by.White Smoke.R.G.Generalfilm.mkv
Format : Matroska
Format version : Version 4
File size : 8.58 GiB
Duration : 2 h 28 min
Overall bit rate : 8 287 kb/s
Movie name : Spider-Man.No.Way.Home.2021.BDRip-1080p.Rip.by.White Smoke.R.G.Generalfilm.mkv
Encoded date : UTC 2022-03-16 15:39:53
Writing application : mkvmerge v6.8.0 ('Theme for Great Cities') 64bit built on Mar 2 2014 21:34:26
Writing library : libebml v1.3.0 + libmatroska v1.4.1
Video
ID : 1
Format : AVC
Format/Info : Advanced Video Codec
Format profile : High@L4.1
Format settings : CABAC / 4 Ref Frames
Format settings, CABAC : Yes
Format settings, Reference frames : 4 frames
Codec ID : V_MPEG4/ISO/AVC
Duration : 2 h 28 min
Bit rate : 7 900 kb/s
Width : 1 920 pixels
Height : 800 pixels
Display aspect ratio : 2.40:1
Frame rate mode : Constant
Frame rate : 23.976 (24000/1001) FPS
Color space : YUV
Chroma subsampling : 4:2:0
Bit depth : 8 bits
Scan type : Progressive
Bits/(Pixel*Frame) : 0.215
Stream size : 8.01 GiB (93%)
Writing library : x264 core 148 r2638 7599210
Encoding settings : cabac=1 / ref=4 / deblock=1:-2:-1 / analyse=0x3:0x113 / me=umh / subme=10 / psy=1 / psy_rd=0.00:0.15 / mixed_ref=1 / me_range=32 / chroma_me=1 / trellis=2 / 8x8dct=1 / cqm=0 / deadzone=21,11 / fast_pskip=0 / chroma_qp_offset=-3 / threads=25 / lookahead_threads=6 / sliced_threads=0 / nr=0 / decimate=0 / interlaced=0 / bluray_compat=0 / constrained_intra=0 / bframes=10 / b_pyramid=2 / b_adapt=2 / b_bias=0 / direct=1 / weightb=1 / open_gop=0 / weightp=2 / keyint=240 / keyint_min=23 / scenecut=40 / intra_refresh=0 / rc_lookahead=40 / rc=2pass / mbtree=0 / bitrate=7900 / ratetol=1.0 / qcomp=0.65 / qpmin=0 / qpmax=69 / qpstep=4 / cplxblur=20.0 / qblur=0.5 / vbv_maxrate=50000 / vbv_bufsize=65500 / nal_hrd=none / filler=0 / ip_ratio=1.40 / pb_ratio=1.30 / aq=1:1.00
Language : English
Default : Yes
Forced : No
Audio
ID : 2
Format : AC-3
Format/Info : Audio Coding 3
Commercial name : Dolby Digital
Codec ID : A_AC3
Duration : 2 h 28 min
Bit rate mode : Constant
Bit rate : 384 kb/s
Channel(s) : 6 channels
Channel layout : L R C LFE Ls Rs
Sampling rate : 48.0 kHz
Frame rate : 31.250 FPS (1536 SPF)
Compression mode : Lossy
Stream size : 407 MiB (5%)
Title : Dub
Language : Russian
Service kind : Complete Main
Default : Yes
Forced : Yes
Text
ID : 3
Format : UTF-8
Codec ID : S_TEXT/UTF8
Codec ID/Info : UTF-8 Plain Text
Title : Forced
Language : Russian
Default : Yes
Forced : Yes
Menu
00:00:00.000 : en:Capítulo 01
00:05:03.177 : en:Capítulo 02
00:11:58.591 : en:Capítulo 03
00:18:38.909 : en:Capítulo 04
00:27:00.451 : en:Capítulo 05
00:37:21.239 : en:Capítulo 06
00:48:02.003 : en:Capítulo 07
00:59:51.795 : en:Capítulo 08
01:04:06.634 : en:Capítulo 09
01:09:51.311 : en:Capítulo 10
01:18:29.453 : en:Capítulo 11
01:28:59.625 : en:Capítulo 12
01:33:48.287 : en:Capítulo 13
01:46:38.390 : en:Capítulo 14
02:05:39.323 : en:Capítulo 15
02:13:03.600 : en:Capítulo 16
Релиз от:
[Profile] [PM]
Display posts:    
Reply to topic

Current time is: 29-Sep 23:16

All times are UTC + 3



You cannot post new topics in this forum
You cannot reply to topics in this forum
You cannot edit your posts in this forum
You cannot delete your posts in this forum
You cannot vote in polls in this forum
You cannot attach files in this forum
You cannot download files in this forum