Discovery. Выжить в темноте / Darkness [1-6 серии из 6] (2017) HDTVRip 720p от GeneralFilm

Reply to topic
 
Author Message

Starik60 ®

Gender: Male

Longevity: 7 months 5 days

Posts: 137

Location: Москва, Россия

Post 19-Nov-2018 21:24

[Quote]

Выжить в темноте / Darkness
Год выпуска: 2017
Жанр: Документальный, реалити-шоу, экстрим
Выпущено: США, Discovery Communications, LLC.
О фильме: За многие годы герои наших программ о выживании доказали, что они могут продержаться без еды, одежды и крыши над головой. Но смогут ли они выжить в темноте? Взяв за основу курс боевой подготовки в армии США и тренировок в NASA, три добровольца попробуют узнать, где лежат пределы человеческих возможностей! Участники шоу проведут в кромешном мраке несколько дней, и их задачей будет на ощупь пройти по системе древних пещер и заброшенных шахт. Героям программы, которые не были знакомы до начала эксперимента, теперь придется срочно искать взаимопонимание и помогать друг другу в экстремальных условиях. Галлюцинации, дезориентация и депривация сна – смогут ли наши смельчаки справиться со сложнейшими психологическими и физическими испытаниями, которые ждут их в темноте?

Качество: HDTVRip 720p
Видео: MPEG-4 AVC, ~ 4000 Кбит/с, 1280x720
Аудио: MP2, 2 ch, 384 Кбит/с
Продолжительность: 6 x ~ 00:44:00
Перевод: Профессиональный (двухголосый, закадровый)

Скриншоты



MediaInfo

General
Unique ID : 90328697240000113093716107142047734174 (0x43F4AC9DF474461A3ABEBF93A2D4199E)
Complete name : H:\Раздачи 4\Выжить в темноте 720p GeneralFilm\01 Выжить в темноте GeneralFilm.mkv
Format : Matroska
Format version : Version 2
File size : 1.35 GiB
Duration : 44 min 2 s
Overall bit rate mode : Constant
Overall bit rate : 4 390 kb/s
Writing application : Lavf54.63.104
Writing library : Lavf54.63.104
Video
ID : 1
Format : AVC
Format/Info : Advanced Video Codec
Format profile : High@L4.1
Format settings : CABAC / 3 Ref Frames
Format settings, CABAC : Yes
Format settings, ReFrames : 3 frames
Codec ID : V_MPEG4/ISO/AVC
Duration : 44 min 2 s
Bit rate mode : Constant
Bit rate : 4 000 kb/s
Width : 1 280 pixels
Height : 720 pixels
Display aspect ratio : 16:9
Frame rate mode : Constant
Frame rate : 50.000 FPS
Standard : PAL
Color space : YUV
Chroma subsampling : 4:2:0
Bit depth : 8 bits
Scan type : Progressive
Bits/(Pixel*Frame) : 0.087
Stream size : 1.21 GiB (89%)
Default : No
Forced : No
Color range : Limited
Color primaries : BT.709
Transfer characteristics : BT.709
Matrix coefficients : BT.709
Audio
ID : 2
Format : MPEG Audio
Format version : Version 1
Format profile : Layer 2
Codec ID : A_MPEG/L2
Codec ID/Hint : MP2
Duration : 44 min 2 s
Bit rate mode : Constant
Bit rate : 384 kb/s
Channel(s) : 2 channels
Sampling rate : 48.0 kHz
Compression mode : Lossy
Delay relative to video : 12 ms
Stream size : 121 MiB (9%)
Language : English
Default : Yes
Forced : No
Благодарю за отличный постер ValkiriaGF
Релиз от:
[Profile] [PM]
Display posts:    
Reply to topic

Current time is: 18-Jun 08:54

All times are UTC + 3



You cannot post new topics in this forum
You cannot reply to topics in this forum
You cannot edit your posts in this forum
You cannot delete your posts in this forum
You cannot vote in polls in this forum
You cannot attach files in this forum
You cannot download files in this forum