Ультрафиолет / Ultraviolet [1 сезон: 1-10 серии из 10] (2017) WEB-DL 720p | GoldTeam

Reply to topic
 
Author Message

Monk ®

Gender: Male

Longevity: 7 months 3 days

Posts: 6917

Location: Казань

Post 19-Nov-2018 21:44

[Quote]

Ультрафиолет / Ultraviolet Год выпуска: 2017
Жанр: Детектив, триллер
Выпущено: Польша, AXN
Режиссер: Славомир Фабики, Ян Комаса
В ролях: Полина Чапко, Магдалена Червинска, Марек Калита, Агата Кулеша
О фильме: Сериал рассказывает о жизни тридцатилетней женщины, которая вынуждена по обстоятельствам оставить мужа и Лондон и вернуться в свой родной город Лодзь. Во время вождения ночью, она становится свидетелем драматической ситуации, которая выглядит как самоубийство, но который она находит весьма подозрительным. Полиция, кажется, безразлична к этому делу. Отчаявшись, Ола ищет помощи в Интернете,где находит группу детективов-любителей, которые расследуют уголовные дела.

Качество: WEB-DL 720p
Видео: MPEG-4 AVC, ~ 1554 Кбит/с, 1280x720
Аудио: Русский (MP3, 2 ch, 320 Кбит/с)
Продолжительность: 10 х ~ 00:45:00
Перевод: Любительский двухголосый [GoldTeam]
Релиз содержит рекламный видеоряд перед каждой серией

Скриншоты

MediaInfo

Общее
Уникальный идентификатор : 186764137139128611799239258547322008810 (0x8C8176E49512121DBC32AC121396B4EA)
Полное имя : D:\Chisto.moskovskie.ubijstva.2017.WEB-DL.(1080p).kinozal.by.Olyanchik\01.Chisto.moskovskie.ubijstva.2017.WEB-DL.(1080p).kinozal.by.Olyanchik.mkv
Формат : Matroska
Версия формата : Version 4 / Version 2
Размер файла : 1,15 Гбайт
Продолжительность : 44 м. 4 с.
Общий поток : 3748 Кбит/сек
Дата кодирования : UTC 2017-10-08 10:07:16
Программа кодирования : mkvmerge v9.6.0 ('Slave To Your Mind') 64bit
Библиотека кодирования : libebml v1.3.4 + libmatroska v1.4.5
Видео
Идентификатор : 1
Формат : AVC
Формат/Информация : Advanced Video Codec
Профиль формата : High@L4
Настройки формата : CABAC / 2 Ref Frames
Параметр CABAC формата : Да
Параметр RefFrames формата : 2 кадра
Идентификатор кодека : V_MPEG4/ISO/AVC
Продолжительность : 44 м. 4 с.
Битрейт : 3481 Кбит/сек
Ширина : 1920 пикселей
Высота : 1080 пикселей
Соотношение сторон : 16:9
Режим частоты кадров : Постоянный
Частота кадров : 25,000 кадров/сек
Цветовое пространство : YUV
Субдискретизация насыщенности : 4:2:0
Битовая глубина : 8 бит
Тип развёртки : Прогрессивная
Бит/(Пиксели*Кадры) : 0.067
Размер потока : 1,07 Гбайт (93%)
Default : Да
Forced : Нет
Цветовой диапазон : Limited
Основные цвета : BT.709
Характеристики трансфера : BT.709
Коэффициенты матрицы : BT.709
Аудио
Идентификатор : 2
Формат : AC-3
Формат/Информация : Audio Coding 3
Идентификатор кодека : A_AC3
Продолжительность : 44 м. 4 с.
Вид битрейта : Постоянный
Битрейт : 192 Кбит/сек
Каналы : 2 канала
Расположение каналов : Front: L R
Частота : 44,1 КГц
Частота кадров : 28,711 кадров/сек (1536 SPF)
Битовая глубина : 16 бит
Метод сжатия : С потерями
Размер потока : 60,5 Мбайт (5%)
ServiceKind/String : Complete Main
Default : Да
Forced : Нет
[Profile] [PM]
Display posts:    
Reply to topic

Current time is: 18-Jun 08:53

All times are UTC + 3



You cannot post new topics in this forum
You cannot reply to topics in this forum
You cannot edit your posts in this forum
You cannot delete your posts in this forum
You cannot vote in polls in this forum
You cannot attach files in this forum
You cannot download files in this forum