Новые Пацанки [8 сезон: 1-16 выпуски + 2 Спецвыпуска из 16] (2023) WEBRip 720p от Files-x

Reply to topic
 
Author Message

papa1951deda ®

Gender: Male

Longevity: 5 years 3 months

Posts: 1726

Location: Казахстан

Post 26-Sep-2022 17:16

[Quote]

Новые Пацанки Год выхода: 2023
Жанр: Развлекательное шоу, реалити-шоу
Выпущено: Россия, Телеканал Пятница
О сериале: Социальное реалити, которое дает шанс девушкам с непростыми судьбами и характерами изменить свою жизнь. В 1 сезоне участницы проведут три месяца в Школе Леди, где им предстоит пройти через психологические испытания и работу с преподавателями. Это поможет пацанкам проработать травмы прошлого и заново обрести себя.
Качество: WEBRip 720p
Видео: MPEG-4 AVC, ~ 3000 Кбит/с, 1280x720, 25 кадр/с
Аудио: AC3, 2 ch, 192 Кбит/с
Продолжительность: 18 x ~ 02:53:00
Перевод: Не требуется
Субтитры: Нет

Скриншоты



MediaInfo

Общее
Уникальный идентификатор: 245034825697019760156204344117192118032 (0xB857FDA68F752BF4856797CE1C1D4F10)
Полное имя: C:\films\Новые Пацанки.2022.WEB-DL 720p.Files-x\01. Новые Пацанки.2022.WEB-DL 720p.Files-x.mkv
Формат: Matroska
Версия формата: Version 2
Размер файла: 3, 85 Гбайт
Продолжительность: 2 ч. 53 м.
Режим общего битрейта: Переменный
Общий поток: 3 180 Кбит/сек
Дата кодирования: UTC 2022-09-22 19:45:01
Программа кодирования: mkvmerge v7.8.0 ('River Man') 32bit built on Apr 3 2015 12:11:22
Библиотека кодирования: libebml v1.3.1 + libmatroska v1.4.2
Видео
Идентификатор: 1
Формат: AVC
Формат/Информация: Advanced Video Codec
Профиль формата: High@L4.1
Настройки формата: CABAC / 2 Ref Frames
Параметр CABAC формата: Да
Параметр RefFrames формата: 2 кадра
Параметр GOP формата: M=4, N=50
Идентификатор кодека: V_MPEG4/ISO/AVC
Продолжительность: 2 ч. 53 м.
Вид битрейта: Переменный
Битрейт: 2 925 Кбит/сек
Максимальный битрейт: 3 000 Кбит/сек
Ширина: 1 280 пикселей
Высота: 720 пикселей
Соотношение сторон: 16:9
Режим частоты кадров: Постоянный
Частота кадров: 25, 000 кадров/сек
Цветовое пространство: YUV
Субдискретизация насыщенности: 4:2:0
Битовая глубина: 8 бит
Тип развёртки: Прогрессивная
Бит/(Пиксели*Кадры): 0.127
Размер потока: 3, 54 Гбайт (92%)
Default: Да
Forced: Нет
Цветовой диапазон: Limited
Основные цвета: BT.709
Характеристики трансфера: BT.709
Коэффициенты матрицы: BT.709
Аудио
Идентификатор: 2
Формат: AC-3
Формат/Информация: Audio Coding 3
Коммерческое название: Dolby Digital
Идентификатор кодека: A_AC3
Продолжительность: 2 ч. 53 м.
Вид битрейта: Постоянный
Битрейт: 192 Кбит/сек
Каналы: 2 канала
Channel layout: L R
Частота: 44, 1 КГц
Частота кадров: 28, 711 кадров/сек (1536 SPF)
Метод сжатия: С потерями
Задержка видео: -120 мс.
Размер потока: 238 Мбайт (6%)
Service kind: Complete Main
Default: Да
Forced: Нет

Внимание! Раздача ведётся путём добавления новых серий

Раздача ведётся путём добавления новых серий, при каждом добавлении создаётся новый торрент. Чтобы начать докачку новой серии, пользователям необходимо сделать следующее:
- Остановить скачивание.
- Удалить старый торрент у себя из клиента (старые серии удалять не надо).
- Скачать новый торрент и запустить его у себя в клиенте вместо старого, при этом указать клиенту путь в старую папку куда и должно происходить скачивание новых серий.
Ваш клиент при этом должен произвести хеширование (проверку) старой папки (если не производит сам - помогите ему сделать это), и будет докачивать только те серии которых у вас ещё нет. Старые серии при этом не удаляются, а продолжают раздаваться!
Релиз от:

Release was prepared by RG Files-x

[Profile] [PM]

sonbaker

Gender: Male

Longevity: 2 months 28 days

Posts: 1

Post 04-Dec-2023 16:53 (after 1 year 2 months)

[Quote]

Прикреплен другой торрент файл - Звезды в Африке.
[Profile] [PM]

papa1951deda ®

Gender: Male

Longevity: 5 years 3 months

Posts: 1726

Location: Казахстан

Post 08-Dec-2023 20:59 (after 4 days)

[Quote]

39048Прикреплен другой торрент файл - Звезды в Африке.
Спасибо. Исправлено
[Profile] [PM]
Display posts:    
Reply to topic

Current time is: 02-Mar 07:26

All times are UTC + 3



You cannot post new topics in this forum
You cannot reply to topics in this forum
You cannot edit your posts in this forum
You cannot delete your posts in this forum
You cannot vote in polls in this forum
You cannot attach files in this forum
You cannot download files in this forum