Discovery. Последние жители Аляски / The Last Alaskans [1-3 сезоны: 1-28 серии из 28] (2015-2017) HDTVRip 720р от GeneralFilm

Ответить на тему
 
Автор Сообщение

Starik60 ®

Пол: Мужской

Стаж: 3 месяца 3 дня

Сообщений: 110

Откуда: Москва, Россия

Создавать темы 15-Ноя-2018 14:35

[Цитировать]

Последние жители Аляски / The Last Alaskans
Год выпуска: 2015-2017
Жанр: Документальный, выживание, природа
Выпущено: США, Discovery Channel
О фильме: Главный герой программы – Хеймо Корт, «крестный отец» этих мест. Когда-то он работал сварщиком в Висконсине, но вместе с женой Эдной переселился на Аляску и никогда не жалел о своем поступке. Корты воспитали четырех дочерей вдали от цивилизации, но захотят ли девушки жить по традициям своих родителей? Может быть, они последуют примеру дочерей еще одного переселенца, Рэя Льюиса, которые решили вернуться в большой мир? Ведь даже самые повседневные вещи и дела на Аляске превращаются в экстремальные приключения. Но каждый волен делать свой выбор – узнайте, каким он будет, посмотрев программу «Последние жители Аляски».

Качество: HDTVRip 720p
Видео: MPEG-4 AVC, ~ 4000 Кбит/с, 1280x720
Аудио: MP2, 2 ch, 192 Кбит/с
Продолжительность: 28 x ~ 00:44:00
Перевод: Профессиональный (одноголосый, закадровый), профессиональный (двухголосый, закадровый)

Скриншоты

[/url]

MediaInfo

Общее
Уникальный идентификатор : 259188194928546577058802263390605200117 (0xC2FDD4A12ED4B2DC869B49A3329ACAF5)
Полное имя : D:\Последние жители Аляски S01-03 720p GeneralFilm\1 сезон\01 Последние жители Аляски 720p GeneralFilm.mkv
Формат : Matroska
Версия формата : Version 2
Размер файла : 1,28 Гбайт
Продолжительность : 43 м. 48 с.
Режим общего битрейта : Постоянный
Общий поток : 4196 Кбит/сек
Программа кодирования : Lavf54.63.104
Библиотека кодирования : Lavf54.63.104
Видео
Идентификатор : 1
Формат : AVC
Формат/Информация : Advanced Video Codec
Профиль формата : High@L4.1
Настройки формата : CABAC / 3 Ref Frames
Параметр CABAC формата : Да
Параметр RefFrames формата : 3 кадра
Идентификатор кодека : V_MPEG4/ISO/AVC
Продолжительность : 43 м. 48 с.
Вид битрейта : Постоянный
Битрейт : 4000 Кбит/сек
Ширина : 1280 пикселей
Высота : 720 пикселей
Соотношение сторон : 16:9
Режим частоты кадров : Постоянный
Частота кадров : 30,000 кадров/сек
Стандарт вещания : NTSC
Цветовое пространство : YUV
Субдискретизация насыщенности : 4:2:0
Битовая глубина : 8 бит
Тип развёртки : Прогрессивная
Бит/(Пиксели*Кадры) : 0.145
Размер потока : 1,20 Гбайт (93%)
Default : Нет
Forced : Нет
Цветовой диапазон : Limited
Основные цвета : BT.709
Характеристики трансфера : BT.709
Коэффициенты матрицы : BT.709
Аудио
Идентификатор : 2
Формат : MPEG Audio
Версия формата : Version 1
Профиль формата : Layer 2
Идентификатор кодека : A_MPEG/L2
Идентификатор кодека/Подсказка : MP2
Продолжительность : 43 м. 48 с.
Вид битрейта : Постоянный
Битрейт : 192 Кбит/сек
Каналы : 2 канала
Частота : 48,0 КГц
Метод сжатия : С потерями
Задержка видео : 4 мс.
Размер потока : 60,2 Мбайт (5%)
Язык : English
Default : Да
Forced : Нет

Интересно

В 1980 году в Национальном Арктическом заповеднике на Аляске была запрещена любая человеческая деятельность – от вырубки леса и нефтедобычи до охоты и рыболовства. Полноценными хозяевами этих суровых мест должны стать животные. Впрочем, около сотни семей пока еще могут жить в заповеднике – срок действия их разрешений еще не истек, но менее чем через 100 лет бумаги утратят свою силу, и тогда здесь не останется ни одного человека. Познакомьтесь с последними жителями этого дикого уголка Аляски.
Благодарю за отличный постер ValkiriaGF
Релиз от:
[Профиль] [ЛС]
Показать сообщения:    
Ответить на тему

Текущее время: 16-Фев 11:19

Часовой пояс: UTC + 3



Вы не можете начинать темы
Вы не можете отвечать на сообщения
Вы не можете редактировать свои сообщения
Вы не можете удалять свои сообщения
Вы не можете голосовать в опросах
Вы не можете прикреплять файлы к сообщениям
Вы не можете скачивать файлы