Новый Comedy Club [19 сезон: 1-25 выпуск из 25] (2023) WEBRip 1080p от Files-x

Reply to topic
 
Author Message

papa1951deda ®

Gender: Male

Longevity: 5 years 3 months

Posts: 1726

Location: Казахстан

Post 04-Mar-2023 17:37

[Quote]

Новый Comedy Club Год выпуска: 2023
Жанр: ТВ-шоу, юмор
Выпущено: Россия, ТНТ
В ролях: Гарик Мартиросян, Павел Воля, Тимур Батрутдинов, Александр Ревва, Гавриил Гордеев, Олег Верещагин (I), Дмитрий Сорокин (II), Зураб Матуа, Андрей Аверин, Алексей Лихницкий, Роман Юнусов, Антон Лирник, Андрей Молочный, Александр Незлобин, Дмитрий Хрусталёв, Виктор Васильев (III), Сергей Бессмертный, Игорь Меерсон, Семён Слепаков
Описание: Главное юмористическое шоу российского телевидения возвращается после перерыва. Comedy Club уже почти два десятилетия остаётся на передовой юмора, всегда успевая за трендами и даже задавая их. В числе гостей шоу всегда можно увидеть самых медийных звёзд: от Ольги Бузовой до Евгения Понасенкова. А на сцену всегда выходят комики, которые за словом в карман не лезут. Душевный острослов Павел Воля, харизматичный лицедей Демис Карибидис, обворожительная красотка Марина Кравец и другие звёзды клуба комедий готовы удивлять зрителей в новом сезоне шоу. Миниатюры, стендап, музыкальные номера и не подпадающее ни под какие жанровые рамки творчество организованной музыкальной группы USB – на сцене Comedy будет жарко, как никогда.

Качество: WEBRip 1080p
Видео: MPEG4-AVC, ~4500 Кбит/с, 1920x1080,1920x1072
Аудио: AC3, 2 ch, 192 Кбит/с
Продолжительность: 25 х~ 00:47:00
Перевод: Не требуется
Субтитры: Нет

Скриншоты



MediaInfo

Общее
Уникальный идентификатор: 186324520895958001506285620857343514728 (0x8C2CCC23806FF1CFA8E8CBD05EAF1868)
Полное имя: C:\films\Comedy Club.s19.2023.WEB-DL 1080p.Files-x\01. Comedy Club.s19.2023.WEB-DL 1080p.Files-x.mkv
Формат: Matroska
Версия формата: Version 2
Размер файла: 1, 43 Гбайт
Продолжительность: 43 м. 47 с.
Режим общего битрейта: Переменный
Общий поток: 4 682 Кбит/сек
Дата кодирования: UTC 2023-03-03 19:07:37
Программа кодирования: mkvmerge v7.8.0 ('River Man') 32bit built on Apr 3 2015 12:11:22
Библиотека кодирования: libebml v1.3.1 + libmatroska v1.4.2
Видео
Идентификатор: 1
Формат: AVC
Формат/Информация: Advanced Video Codec
Профиль формата: High@L4.1
Настройки формата: CABAC / 2 Ref Frames
Параметр CABAC формата: Да
Параметр RefFrames формата: 2 кадра
Идентификатор кодека: V_MPEG4/ISO/AVC
Продолжительность: 43 м. 47 с.
Вид битрейта: Переменный
Битрейт: 4 397 Кбит/сек
Максимальный битрейт: 4 500 Кбит/сек
Ширина: 1 920 пикселей
Высота: 1 072 пикселя
Соотношение сторон: 16:9
Режим частоты кадров: Постоянный
Частота кадров: 25, 000 кадров/сек
Цветовое пространство: YUV
Субдискретизация насыщенности: 4:2:0
Битовая глубина: 8 бит
Тип развёртки: Прогрессивная
Бит/(Пиксели*Кадры): 0.085
Размер потока: 1, 34 Гбайт (94%)
Default: Да
Forced: Нет
Цветовой диапазон: Limited
Основные цвета: BT.709
Характеристики трансфера: BT.709
Коэффициенты матрицы: BT.709
Аудио
Идентификатор: 2
Формат: AC-3
Формат/Информация: Audio Coding 3
Коммерческое название: Dolby Digital
Идентификатор кодека: A_AC3
Продолжительность: 43 м. 47 с.
Вид битрейта: Постоянный
Битрейт: 192 Кбит/сек
Каналы: 2 канала
Channel layout: L R
Частота: 44, 1 КГц
Частота кадров: 28, 711 кадров/сек (1536 SPF)
Метод сжатия: С потерями
Задержка видео: -120 мс.
Размер потока: 60, 1 Мбайт (4%)
Service kind: Complete Main
Default: Да
Forced: Нет

Внимание! Раздача ведётся путём добавления новых серий

Раздача ведётся путём добавления новых серий, при каждом добавлении создаётся новый торрент. Чтобы начать докачку новой серии, пользователям необходимо сделать следующее:
- Остановить скачивание.
- Удалить старый торрент у себя из клиента (старые серии удалять не надо).
- Скачать новый торрент и запустить его у себя в клиенте вместо старого, при этом указать клиенту путь в старую папку куда и должно происходить скачивание новых серий.
Ваш клиент при этом должен произвести хеширование (проверку) старой папки (если не производит сам - помогите ему сделать это), и будет докачивать только те серии которых у вас ещё нет. Старые серии при этом не удаляются, а продолжают раздаваться!
Релиз от:

Release was prepared by RG Files-x

[Profile] [PM]
Display posts:    
Reply to topic

Current time is: 02-Mar 07:39

All times are UTC + 3



You cannot post new topics in this forum
You cannot reply to topics in this forum
You cannot edit your posts in this forum
You cannot delete your posts in this forum
You cannot vote in polls in this forum
You cannot attach files in this forum
You cannot download files in this forum