Игрушки для взрослых / The Happytime Murders (2018) BDRip 720p | iTunes

Ответить на тему
 
Автор Сообщение

sergey82 ®

Пол: Мужской

Стаж: 2 месяца 28 дней

Сообщений: 142

Откуда: Украина

Создавать темы 20-Ноя-2018 10:52

[Цитировать]

Игрушки для взрослых / The Happytime Murders
Год выпуска: 2018
Жанр: Боевик, триллер, комедия, криминал, детектив
Выпущено: Китай, США, Black Bear Pictures,Henson Alternative,Huayi Brothers Media
Режиссер: Брайан Хенсон
В ролях: Мелисса МакКарти, Элизабет Бэнкс, Майя Рудольф, Лесли Дэвид Бэйкер, Джоэл МакХэйл, Синти У, Майкл МакДональд, Митч Силпа, Хемки Мадера, Бенджамин Коул Ройер
О фильме: Лос-Анджелес - город денег, знаменитостей и взрослых развлечений, здесь куклы живут бок о бок с людьми. Внезапно по мегаполису прокатывается волна загадочных преступлений, связанных со звездами популярного телешоу. И тогда на охоту выходят бывшие напарники - брутальный частный детектив и коп в юбке...
Качество: BDRip 720p
Видео: MPEG-4 AVC, 5384 Kбит/с, 1280x536
Аудио: Русский, украинский (AC3, 6 ch, 384 Кбит/с), английский (DTS, 6 ch, 1509 Кбит/с)
Продолжительность: 01:30:49
Перевод: Профессиональный (дублированный) [iTunes]
Cубтитры: английские

Скриншоты



MediaInfo

Общее
Уникальный идентификатор : 2804490783472875623881008348277410975 (0x21C201235CC69EC4016274204768C9F)
Полное имя : D:\The.Happytime.Murders.2018.720p.BluRay.X264.Rus.Ukr.Eng.mkv
Формат : Matroska
Версия формата : Version 4 / Version 2
Размер файла : 4,86 Гбайт
Продолжительность : 1 ч. 30 м.
Общий поток : 7662 Кбит/сек
Название фильма : Игрушки для взрослых (2018)
Дата кодирования : UTC 2018-11-20 00:07:56
Программа кодирования : mkvmerge v27.0.0 ('Metropolis') 64-bit
Библиотека кодирования : libebml v1.3.6 + libmatroska v1.4.9
Видео
Идентификатор : 1
Формат : AVC
Формат/Информация : Advanced Video Codec
Профиль формата : High@L4.1
Настройки формата : CABAC / 9 Ref Frames
Параметр CABAC формата : Да
Параметр RefFrames формата : 9 кадров
Идентификатор кодека : V_MPEG4/ISO/AVC
Продолжительность : 1 ч. 30 м.
Битрейт : 5384 Кбит/сек
Ширина : 1280 пикселей
Высота : 536 пикселей
Соотношение сторон : 2,40:1
Режим частоты кадров : Постоянный
Частота кадров : 23,976 (24000/1001) кадра/сек
Цветовое пространство : YUV
Субдискретизация насыщенности : 4:2:0
Битовая глубина : 8 бит
Тип развёртки : Прогрессивная
Бит/(Пиксели*Кадры) : 0.327
Размер потока : 3,32 Гбайт (68%)
Заголовок : The.Happytime.Murders.2018.720p.BluRay.X264.Rus.Ukr.Eng
Библиотека кодирования : x264 core 157 r2932+2 (master: 303c484 / tmod: 1b88d0a) [X86_64]
Настройки программы : cabac=1 / ref=9 / deblock=1:-3:-3 / analyse=0x3:0x113 / me=umh / subme=10 / psy=1 / psy_rd=1.05:0.05 / mixed_ref=1 / me_range=48 / chroma_me=1 / trellis=2 / 8x8dct=1 / cqm=0 / deadzone=6,6 / fast_pskip=0 / chroma_qp_offset=-3 / threads=17 / lookahead_threads=2 / sliced_threads=0 / nr=0 / decimate=0 / interlaced=0 / bluray_compat=0 / constrained_intra=0 / bframes=9 / b_pyramid=2 / b_adapt=2 / b_bias=0 / direct=3 / weightb=1 / open_gop=0 / weightp=2 / keyint=250 / keyint_min=23 / scenecut=40 / intra_refresh=0 / rc_lookahead=60 / rc=2pass / mbtree=0 / bitrate=5384 / ratetol=1.0 / qcomp=0.80 / qpmin=0 / qpmax=69 / qpstep=4 / cplxblur=20.0 / qblur=0.5 / vbv_maxrate=50000 / vbv_bufsize=62500 / nal_hrd=none / filler=0 / ip_ratio=1.20 / pb_ratio=1.15 / aq=3:0.85
Язык : English
Default : Да
Forced : Нет
Аудио #1
Идентификатор : 2
Формат : AC-3
Формат/Информация : Audio Coding 3
Идентификатор кодека : A_AC3
Продолжительность : 1 ч. 30 м.
Вид битрейта : Постоянный
Битрейт : 384 Кбит/сек
Каналы : 6 каналов
Расположение каналов : Front: L C R, Side: L R, LFE
Частота : 48,0 КГц
Частота кадров : 31,250 кадров/сек (1536 SPF)
Битовая глубина : 16 бит
Метод сжатия : С потерями
Размер потока : 249 Мбайт (5%)
Заголовок : iTunes
Язык : Russian
ServiceKind/String : Complete Main
Default : Да
Forced : Да
Аудио #2
Идентификатор : 3
Формат : AC-3
Формат/Информация : Audio Coding 3
Идентификатор кодека : A_AC3
Продолжительность : 1 ч. 30 м.
Вид битрейта : Постоянный
Битрейт : 384 Кбит/сек
Каналы : 6 каналов
Расположение каналов : Front: L C R, Side: L R, LFE
Частота : 48,0 КГц
Частота кадров : 31,250 кадров/сек (1536 SPF)
Битовая глубина : 16 бит
Метод сжатия : С потерями
Размер потока : 249 Мбайт (5%)
Язык : Ukrainian
ServiceKind/String : Complete Main
Default : Нет
Forced : Нет
Аудио #3
Идентификатор : 4
Формат : DTS
Формат/Информация : Digital Theater Systems
Идентификатор кодека : A_DTS
Продолжительность : 1 ч. 30 м.
Вид битрейта : Постоянный
Битрейт : 1509 Кбит/сек
Каналы : 6 каналов
Расположение каналов : Front: L C R, Side: L R, LFE
Частота : 48,0 КГц
Частота кадров : 93,750 кадра/сек (512 SPF)
Битовая глубина : 16 бит
Метод сжатия : С потерями
Размер потока : 980 Мбайт (20%)
Язык : English
Default : Нет
Forced : Нет
Текст #1
Идентификатор : 5
Формат : UTF-8
Идентификатор кодека : S_TEXT/UTF8
Идентификатор кодека/Информация : UTF-8 Plain Text
Заголовок : Full
Язык : English
Default : Нет
Forced : Нет
Текст #2
Идентификатор : 6
Формат : UTF-8
Идентификатор кодека : S_TEXT/UTF8
Идентификатор кодека/Информация : UTF-8 Plain Text
Заголовок : SDH
Язык : English
Default : Нет
Forced : Нет
Меню
00:00:00.000 : en:00:00:00.000
00:08:35.765 : en:00:08:35.765
00:15:12.995 : en:00:15:12.995
00:22:23.676 : en:00:22:23.676
00:31:17.250 : en:00:31:17.250
00:38:13.208 : en:00:38:13.208
00:44:11.899 : en:00:44:11.899
00:51:28.752 : en:00:51:28.752
01:00:52.524 : en:01:00:52.524
01:08:02.662 : en:01:08:02.662
01:14:15.868 : en:01:14:15.868
01:20:37.541 : en:01:20:37.541
[Профиль] [ЛС]
Показать сообщения:    
Ответить на тему

Текущее время: 16-Фев 21:27

Часовой пояс: UTC + 3



Вы не можете начинать темы
Вы не можете отвечать на сообщения
Вы не можете редактировать свои сообщения
Вы не можете удалять свои сообщения
Вы не можете голосовать в опросах
Вы не можете прикреплять файлы к сообщениям
Вы не можете скачивать файлы