СашаТаня [12 сезон: 1-40 серии из 40] (2023) WEBRip от Files-х

Reply to topic
 
Author Message

papa1951deda ®

Gender: Male

Longevity: 5 years 4 months

Posts: 1726

Location: Казахстан

Post 18-May-2023 19:17

[Quote]

СашаТаня Год выпуска: 2023
Жанр: Комедия, ситком
Выпущено: Россия, Кинокомпания "Comedy Club Production"
Режиссер: Александр Потапов (IV)
В ролях: Андрей Гайдулян, Валентина Рубцова, Артемий Широков, Алексей Климушкин, Андрей Свиридов, Павел Кассинский, Сергей Рудзевич, Алина Кизиярова-Ланина, Лариса Баранова (II), Арсен Карапетян, Шамиль Мухамедов
О сериале: В новом сезоне Саша и Таня узнают о скором прибавлении в семье! Беременность Тани спровоцирует скандал в шоу-бизнесе, заставит работать самого Комарова и идти на уступки чиновника. Саша наймет женщину легкого поведения, чтобы поднять свой рейтинг в глазах жены, найдет на раскопках старинную вазу, но потеряет редкую монету, стоимость которой исчисляется несколькими сотнями тысяч рублей.

Качество: WEBRip
Видео: XviD, ~ 1600 Кбит/с, 720x400, 25 кадр/с
Аудио: AC3, 2 ch, 192 Кбит/с
Продолжительность: 4 x ~ 00:24:00
Перевод: Не требуется
Субтитры: Нет

Скриншоты



MediaInfo

Общее
Полное имя : C:\films\СашаТаня.s08.2023.WEB-DLRip.Files-x\03 СашаТаня.s08.2023.WEB-DLRip.Files-x.avi
Формат : AVI
Формат/Информация : Audio Video Interleave
Размер файла : 299 Мбайт
Продолжительность : 23 м. 19 с.
Общий поток : 1 795 Кбит/сек
Программа кодирования : VirtualDubMod 1.5.10.3 | https://www.virtualdub-fr.org || (build 2550/release)
Библиотека кодирования : VirtualDubMod build 2550/release
Видео
Идентификатор : 0
Формат : MPEG-4 Visual
Профиль формата : Advanced Simple@L5
Настройки формата : BVOP1 / Custom Matrix
Параметр BVOP формата : 1
Параметр QPel формата : Нет
Параметр GMC формата : Без точки перехода
Параметр матрицы формата : Выборочная
Идентификатор кодека : XVID
Идентификатор кодека/Подсказка : XviD
Продолжительность : 23 м. 19 с.
Битрейт : 1 593 Кбит/сек
Ширина : 720 пикселей
Высота : 400 пикселей
Соотношение сторон : 16:9
Частота кадров : 25,000 кадров/сек
Цветовое пространство : YUV
Субдискретизация насыщенности : 4:2:0
Битовая глубина : 8 бит
Тип развёртки : Прогрессивная
Метод сжатия : С потерями
Бит/(Пиксели*Кадры) : 0.221
Размер потока : 266 Мбайт (89%)
Библиотека кодирования : XviD 73
Аудио
Идентификатор : 1
Формат : AC-3
Формат/Информация : Audio Coding 3
Коммерческое название : Dolby Digital
Идентификатор кодека : 2000
Продолжительность : 23 м. 19 с.
Вид битрейта : Постоянный
Битрейт : 192 Кбит/сек
Каналы : 2 канала
Channel layout : L R
Частота : 48,0 КГц
Частота кадров : 31,250 кадров/сек (1536 SPF)
Метод сжатия : С потерями
Размер потока : 32,0 Мбайт (11%)
Выравнивание : Разделение по промежуткам
Продолжительность промежутка : 40 мс. (1,00 видеокадр)
Время предзагрузки промежутка : 500 мс.
Service kind : Complete Main

Внимание! Раздача ведётся путём добавления новых серий

Раздача ведётся путём добавления новых серий, при каждом добавлении создаётся новый торрент. Чтобы начать докачку новой серии, пользователям необходимо сделать следующее:
- Остановить скачивание.
- Удалить старый торрент у себя из клиента (старые серии удалять не надо).
- Скачать новый торрент и запустить его у себя в клиенте вместо старого, при этом указать клиенту путь в старую папку куда и должно происходить скачивание новых серий.
Ваш клиент при этом должен произвести хеширование (проверку) старой папки (если не производит сам - помогите ему сделать это), и будет докачивать только те серии которых у вас ещё нет. Старые серии при этом не удаляются, а продолжают раздаваться!
Релиз от:

Release was prepared by RG Files-x

[Profile] [PM]
Display posts:    
Reply to topic

Current time is: 20-Apr 15:37

All times are UTC + 3



You cannot post new topics in this forum
You cannot reply to topics in this forum
You cannot edit your posts in this forum
You cannot delete your posts in this forum
You cannot vote in polls in this forum
You cannot attach files in this forum
You cannot download files in this forum