Древние греки The Greeks [01-03 из 03] (2016-2017) HDTVRip от Generalfilm

Reply to topic
 
Author Message

admin ®

Gender: Male

Longevity: 11 months 9 days

Posts: 16

Post 20-Nov-2018 12:11

[Quote]

Древние греки / The Greeks
Год выпуска: 2016-2017
Жанр: Документальный, история
Выпущено: США, National Geographic Studios
Режиссер: Беттани Хьюз
О фильме: Это были удивительные люди, рождённые белыми скалами и синем морем. Они изобрели демократию, отделили логику от разума, они передали глубочайшие душевные переживания в своих драмах, а совершенство человеческого тела - в спорте и искусствах. Греки - это люди, которые создали наш мир.
Качество: HDTVRip
Видео: XviD, ~ 1600 Кбит/с, 720x400
Аудио: AC3, 2 ch, 192 Кбит/с
Продолжительность: 3 x ~ 00:45:00
Перевод: Профессиональный (двухголосый закадровый)

Скриншоты


MediaInfo

General
Complete name : D:\Торренты\Drevnie.greki.XviD.2016.HDTVRip.Generalfilm\001.avi
Format : AVI
Format/Info : Audio Video Interleave
File size : 550 MiB
Duration : 43mn 55s
Overall bit rate : 1 752 Kbps
Director : WhiteQueen
Writing application : VirtualDubMod 1.5.10.3 | www.virtualdub-fr.org || (build 2550/release)
Video
ID : 0
Format : MPEG-4 Visual
Format profile : Advanced Simple@L5
Format settings, BVOP : 2
Format settings, QPel : No
Format settings, GMC : No warppoints
Format settings, Matrix : Custom
Codec ID : XVID
Codec ID/Hint : XviD
Duration : 43mn 55s
Bit rate : 1 550 Kbps
Width : 720 pixels
Height : 400 pixels
Display aspect ratio : 16:9
Frame rate : 25.000 fps
Color space : YUV
Chroma subsampling : 4:2:0
Bit depth : 8 bits
Scan type : Progressive
Compression mode : Lossy
Bits/(Pixel*Frame) : 0.215
Stream size : 487 MiB (88%)
Writing library : XviD 65
Audio
ID : 1
Format : AC-3
Format/Info : Audio Coding 3
Mode extension : CM (complete main)
Format settings, Endianness : Big
Codec ID : 2000
Duration : 43mn 55s
Bit rate mode : Constant
Bit rate : 192 Kbps
Channel(s) : 2 channels
Channel positions : Front: L R
Sampling rate : 48.0 KHz
Bit depth : 16 bits
Compression mode : Lossy
Stream size : 60.3 MiB (11%)
Alignment : Split accross interleaves
Interleave, duration : 40 ms (1.00 video frame)
Interleave, preload duration : 500 ms
Релиз от:
[Profile] [PM]
Display posts:    
Reply to topic

Current time is: 19-Oct 16:35

All times are UTC + 3



You cannot post new topics in this forum
You cannot reply to topics in this forum
You cannot edit your posts in this forum
You cannot delete your posts in this forum
You cannot vote in polls in this forum
You cannot attach files in this forum
You cannot download files in this forum