Discovery. Бушкрафт: лесная лига / Bushcraft Build-Off [1-6 серии из 6] (2017) HDTVRip 720p от GeneralFilm

Reply to topic
 
Author Message

Starik60 ®

Gender: Male

Longevity: 11 months 8 days

Posts: 171

Location: Москва, Россия

Post 20-Nov-2018 13:39

[Quote]

Бушкрафт: лесная лига / Bushcraft Build-Off
Год выпуска: 2017
Жанр: Документальный, соревнование, строительство
Выпущено: США, Discovery Communications, LLC.
Ведущий: Мэтт Грэм
О фильме: В последние годы в Америке набирает популярность недавно зародившаяся субкультура выживальщиков, способных собирать жилища из подручных материалов всюду, куда бы судьба их ни забросила. Мы расскажем вам о соревнованиях десяти лучших специалистов в области «примитивного» конструирования. Их задача − совершенствовать традиционные техники и придумывать новые способы выживания. Командам даётся всего одна неделя, чтобы найти или изготовить необходимые инструменты и завершить постройку самого простого жилья исключительно из материалов, найденных неподалеку. Выживальщики оценят работу соперников по следующим параметрам: общая конструкция, мастерство, изобретательность и новаторство. Все участники постараются показать себя с лучшей стороны и обойти остальных, ведь в этом конкурсе будет лишь один победитель.

Качество: HDTVRip 720p
Видео: MPEG-4 AVC, ~ 4000 Кбит/с, 1280x720
Аудио: MP2, 2 ch, 192 Кбит/с
Продолжительность: 6 x ~ 00:44:00
Перевод: Профессиональный (двухголосый, закадровый)

Скриншоты



MediaInfo

General
Unique ID : 180884082557192880782516581506069172451 (0x881501D1B2BF3C5882EDD6A9304210E3)
Complete name : H:\Раздачи 3\Бушкрафт лесная лига 720p GeneralFilm\01 Бушкрафт лесная лига GeneralFilm.mkv
Format : Matroska
Format version : Version 2
File size : 1.34 GiB
Duration : 43 min 33 s
Overall bit rate mode : Constant
Overall bit rate : 4 389 kb/s
Writing application : Lavf54.63.104
Writing library : Lavf54.63.104
Video
ID : 1
Format : AVC
Format/Info : Advanced Video Codec
Format profile : High@L4.1
Format settings : CABAC / 3 Ref Frames
Format settings, CABAC : Yes
Format settings, ReFrames : 3 frames
Codec ID : V_MPEG4/ISO/AVC
Duration : 43 min 33 s
Bit rate mode : Constant
Bit rate : 4 000 kb/s
Width : 1 280 pixels
Height : 720 pixels
Display aspect ratio : 16:9
Frame rate mode : Constant
Frame rate : 50.000 FPS
Standard : PAL
Color space : YUV
Chroma subsampling : 4:2:0
Bit depth : 8 bits
Scan type : Progressive
Bits/(Pixel*Frame) : 0.087
Stream size : 1.19 GiB (89%)
Default : No
Forced : No
Color range : Limited
Color primaries : BT.709
Transfer characteristics : BT.709
Matrix coefficients : BT.709
Audio
ID : 2
Format : MPEG Audio
Format version : Version 1
Format profile : Layer 2
Codec ID : A_MPEG/L2
Codec ID/Hint : MP2
Duration : 43 min 33 s
Bit rate mode : Constant
Bit rate : 384 kb/s
Channel(s) : 2 channels
Sampling rate : 48.0 kHz
Compression mode : Lossy
Delay relative to video : 4 ms
Stream size : 120 MiB (9%)
Language : English
Default : Yes
Forced : No
Благодарю за отличный постер ValkiriaGF
Релиз от:
[Profile] [PM]
Display posts:    
Reply to topic

Current time is: 20-Oct 18:35

All times are UTC + 3



You cannot post new topics in this forum
You cannot reply to topics in this forum
You cannot edit your posts in this forum
You cannot delete your posts in this forum
You cannot vote in polls in this forum
You cannot attach files in this forum
You cannot download files in this forum