Цикады [1-8 серии из 8] (2023) WEBRip от Files-х

Reply to topic
 
Author Message

patriot67 ®

Gender: Male

Longevity: 4 years 3 months

Posts: 214

Post 27-Oct-2023 18:42

[Quote]

Цикады Год выпуска: 2023
Жанр: Драма
Выпущено: Россия, Кинокомпания "Evolution Pictures Film Company", "Лунапарк", "Плюс Студия"
Режиссер: Евгений Стычкин
В ролях: Григорий Верник, Софья Аржаных, Илья Виногорский, Екатерина Воронина (II), Сергей Городничий, Кирилл Буханцев, Ирина Паутова, Савелий Наумов, Ольга Сутулова, Екатерина Варнава, Сергей Уманов, Ксения Рябинкина, Елизавета Боярская, Евгений Стычкин, Виктория Толстоганова
О фильме: Антон и Алина, Марк и Соня, Алекс и Катя — вчерашние школьники, которые только начинают жить по-взрослому, влюбляются, мечтают, строят планы на будущее, пока не случается страшная трагедия на вечеринке. Теперь им, их родителям и следователю нужно восстановить картину случившегося. Чем дальше заходит допрос, тем больше раскрывается проблем и тайн. Подростки растеряны и напуганы, а родители задаются вопросом: а хорошо ли они вообще знали своих детей?
Качество: WEBRip
Видео: XviD, ~ 1600 Кбит/с, 704x352, 25 кадр/с
Аудио №1: AC3, 6 ch, 448 Кбит/с | С цензурой
Аудио №2: AC3, 6 ch, 448 Кбит/с | Без цензуры (18+)
Продолжительность: 8 х ~ 00:43:16
Перевод: Не требуется
Субтитры: Русские, русские (SDH)

Скриншоты




MediaInfo

General
Complete name : D:\Цикады-2023.WEB-DLRip.Files-x\01. Цикады-2023.WEB-DLRip.Files-x.avi
Format : AVI
Format/Info : Audio Video Interleave
File size : 766 MiB
Duration : 43 min 16 s
Overall bit rate : 2 475 kb/s
Writing application : VirtualDubMod 1.5.10.3 | www.virtualdub-fr.org || (build 2550/release)
Writing library : VirtualDubMod build 2550/release
Video
ID : 0
Format : MPEG-4 Visual
Format profile : Advanced Simple@L5
Format settings : BVOP1 / Custom Matrix
Format settings, BVOP : 1
Format settings, QPel : No
Format settings, GMC : No warppoints
Format settings, Matrix : Custom
Codec ID : XVID
Codec ID/Hint : XviD
Duration : 43 min 16 s
Bit rate : 1 564 kb/s
Width : 704 pixels
Height : 352 pixels
Display aspect ratio : 2.000
Frame rate : 25.000 FPS
Color space : YUV
Chroma subsampling : 4:2:0
Bit depth : 8 bits
Scan type : Progressive
Compression mode : Lossy
Bits/(Pixel*Frame) : 0.253
Stream size : 484 MiB (63%)
Writing library : XviD 73
Audio #1
ID : 1
Format : AC-3
Format/Info : Audio Coding 3
Format settings, Endianness : Big
Codec ID : 2000
Duration : 43 min 16 s
Bit rate mode : Constant
Bit rate : 448 kb/s
Channel(s) : 6 channels
Channel positions : Front: L C R, Side: L R, LFE
Sampling rate : 48.0 kHz
Frame rate : 31.250 FPS (1536 SPF)
Bit depth : 16 bits
Compression mode : Lossy
Stream size : 139 MiB (18%)
Alignment : Split accross interleaves
Interleave, duration : 40 ms (1.00 video frame)
Interleave, preload duration : 500 ms
Service kind : Complete Main
Audio #2
ID : 2
Format : AC-3
Format/Info : Audio Coding 3
Format settings, Endianness : Big
Codec ID : 2000
Duration : 43 min 16 s
Bit rate mode : Constant
Bit rate : 448 kb/s
Channel(s) : 6 channels
Channel positions : Front: L C R, Side: L R, LFE
Sampling rate : 48.0 kHz
Frame rate : 31.250 FPS (1536 SPF)
Bit depth : 16 bits
Compression mode : Lossy
Stream size : 139 MiB (18%)
Alignment : Split accross interleaves
Interleave, duration : 40 ms (1.00 video frame)
Interleave, preload duration : 500 ms
Title : 18+
Service kind : Complete Main

Внимание! Раздача ведётся путём добавления новых серий

Раздача ведётся путём добавления новых серий, при каждом добавлении создаётся новый торрент. Чтобы начать докачку новой серии, пользователям необходимо сделать следующее:
- Остановить скачивание.
- Удалить старый торрент у себя из клиента (старые серии удалять не надо).
- Скачать новый торрент и запустить его у себя в клиенте вместо старого, при этом указать клиенту путь в старую папку куда и должно происходить скачивание новых серий.
Ваш клиент при этом должен произвести хеширование (проверку) старой папки (если не производит сам - помогите ему сделать это), и будет докачивать только те серии которых у вас ещё нет. Старые серии при этом не удаляются, а продолжают раздаваться!
Релиз от:

Release was prepared by RG Files-x

[Profile] [PM]
Display posts:    
Reply to topic

Current time is: 02-Mar 05:30

All times are UTC + 3



You cannot post new topics in this forum
You cannot reply to topics in this forum
You cannot edit your posts in this forum
You cannot delete your posts in this forum
You cannot vote in polls in this forum
You cannot attach files in this forum
You cannot download files in this forum