Полярный [3 сезон: 1-16 серии из 16 + Фильм о фильме] (2023) HDTV 1080p от Files-x

Reply to topic
 
Author Message

Nicodem ®

Gender: Male

Longevity: 5 years 3 months

Posts: 1397

Post 20-Nov-2023 20:57

[Quote]

Полярный
Год выпуска: 2023
Жанр: Комедия
Выпущено: Россия, ТНТ, PREMIER, 1-2-3 Production
Режиссер: Илья Аксёнов
В ролях: Михаил Пореченков, Иван Охлобыстин, Катерина Шпица, Ян Цапник, Александр Ратников, Елена Воробей, Мария Кравченко, Софья Зайка, Карина Зверева, Сергей Козик, Антон Богданов, Жаргал Бадмацыренов, Светлана Листова, Борис Каморзин, Денис Пьянов, Юрий Назаров, Филипп Дьячков, Демис Карибидис, Ренат Мухамбаев, Сергей Черданцев, Ярослав Печенин, Александр Аноприков, Иван Алексеев (III), Алексей Онежен, Дмитрий Колчин, Лариса Белодед, Дмитрий Пастер
О фильме: Витя теперь не просто лучший фермер Заполярья, но и счастливый отец. Однако насладиться семейной идиллией снова не получится. По личной просьбе губернатора Витя становится мэром Полярного. Витя и так не восторге от новой должности, а тут ещё выясняется, что предыдущий мэр оставил после себя многомиллионную дыру в городском бюджете. Витя хочет сложить с себя полномочия, но когда понимает, что перешёл дорогу влиятельному и нечистому на руку бизнесмену Ломаеву, то решает остаться на посту мэра Полярного, чтобы спасти его жителей от выселения из собственных домов. Но беда не приходит одна. В третьем сезоне Вите предстоит познакомиться с мамой Полины – преподавателем литературы на пенсии. Однако даже новый высокий пост не помогает Громову соответствовать высоким стандартам его тещи.

Качество: HDTV 1080p
Видео: MPEG-4 AVC, ~ 6480 Кбит/с, 1920x1080, 25 кадр/с
Аудио: MP2, 2 ch, 192 Кбит/с
Продолжительность: 17 х 00:24:04
Перевод: Не требуется
Субтитры: Нет

Скриншоты



MediaInfo

General
ID : 1 (0x1)
Complete name : C:33.Полярный (Полярный-17).s03.E01.(2023).HDTV.(1080р).by.Nicodem.Files-x.ts
Format : MPEG-TS
File size : 1.19 GiB
Duration : 24mn 12s
Overall bit rate : 7 021 Kbps
Maximum Overall bit rate : 35.5 Mbps
Video
ID : 4113 (0x1011)
Menu ID : 1 (0x1)
Format : AVC
Format/Info : Advanced Video Codec
Format profile : High@L4.1
Format settings, CABAC : No
Format settings, ReFrames : 3 frames
Codec ID : 27
Duration : 24mn 12s
Bit rate mode : Variable
Bit rate : 6 480 Kbps
Maximum bit rate : 40.0 Mbps
Width : 1 920 pixels
Height : 1 080 pixels
Display aspect ratio : 16:9
Frame rate : 25.000 fps
Color space : YUV
Chroma subsampling : 4:2:0
Bit depth : 8 bits
Scan type : Progressive
Bits/(Pixel*Frame) : 0.125
Stream size : 1.10 GiB (92%)
Language : English
Audio
ID : 4352 (0x1100)
Menu ID : 1 (0x1)
Format : MPEG Audio
Format version : Version 1
Format profile : Layer 2
Codec ID : 4
Duration : 24mn 12s
Bit rate mode : Constant
Bit rate : 192 Kbps
Channel(s) : 2 channels
Sampling rate : 48.0 KHz
Compression mode : Lossy
Stream size : 33.3 MiB (3%)

Раздача ведётся путём добавления новых серий

Внимание! Раздача ведётся путём добавления новых серий; при каждом добавлении создаётся новый торрент.
Чтобы начать докачку новой серии, пользователям необходимо сделать следующее:
1. Остановить скачивание;
2. Удалить старый торрент у себя из клиента (старые серии удалять не надо);
3. Скачать новый торрент и запустить его у себя в клиенте вместо старого, при этом указать клиенту путь в старую папку куда и должно происходить скачивание новых серий. Ваш клиент при этом должен произвести хеширование (проверку) старой папки и будет докачивать только те серии, которых у вас ещё нет. Старые серии при этом не удаляются, а продолжают раздаваться! Eсли вы уже удалили старые серии, то предотвратить повторную закачку старых серий можно, отжав галочку в соответствующих местах при запуске нового торрента.
Релиз от:

Release was prepared by RG Files-x

[Profile] [PM]

Nicodem ®

Gender: Male

Longevity: 5 years 3 months

Posts: 1397

Post 21-Nov-2023 17:21 (after 20 hours)

[Quote]

Замена 1-ой серии!
Добавлены 3-4 серии!
[Profile] [PM]

Nicodem ®

Gender: Male

Longevity: 5 years 3 months

Posts: 1397

Post 22-Nov-2023 16:28 (after 23 hours)

[Quote]

Замена 3-ей серии!
Добавлены 5-6 серии!
[Profile] [PM]

Nicodem ®

Gender: Male

Longevity: 5 years 3 months

Posts: 1397

Post 04-Dec-2023 16:56 (after 12 days)

[Quote]

Замена 10-ой серии!
Добавлены 12-14 серии!
[Profile] [PM]

Nicodem ®

Gender: Male

Longevity: 5 years 3 months

Posts: 1397

Post 06-Dec-2023 18:27 (after 2 days 1 hour)

[Quote]

Внимание! Замена 13-ой серии!
Внимание! Добавлены 15-я - 16-я серии!
[Profile] [PM]

Nicodem ®

Gender: Male

Longevity: 5 years 3 months

Posts: 1397

Post 11-Dec-2023 12:31 (after 4 days)

[Quote]

Внимание! Замена 16-ой серии!
Внимание! Добавлен Фильм о фильме!
[Profile] [PM]
Display posts:    
Reply to topic

Current time is: 02-Mar 07:40

All times are UTC + 3



You cannot post new topics in this forum
You cannot reply to topics in this forum
You cannot edit your posts in this forum
You cannot delete your posts in this forum
You cannot vote in polls in this forum
You cannot attach files in this forum
You cannot download files in this forum