Полярный [3 сезон: 1-16 серии из 16] (2023) WEBRip от Files-x

Reply to topic
 
Author Message

patriot67 ®

Gender: Male

Longevity: 4 years 3 months

Posts: 214

Post 20-Nov-2023 21:36

[Quote]

Полярный Год выпуска: 2023
Жанр: Комедия
Выпущено: Россия, Кинокомпания "1-2-3 Production"
Режиссер: Илья Аксёнов
В ролях: Михаил Пореченков, Иван Охлобыстин, Катерина Шпица, Ян Цапник, Александр Ратников, Елена Воробей, Мария Кравченко, Софья Зайка, Карина Зверева, Сергей Козик, Антон Богданов, Жаргал Бадмацыренов, Светлана Листова, Борис Каморзин, Денис Пьянов, Юрий Назаров, Филипп Дьячков, Демис Карибидис, Ренат Мухамбаев, Сергей Черданцев, Ярослав Печенин, Александр Аноприков, Иван Алексеев (III), Алексей Онежен, Дмитрий Колчин, Лариса Белодед, Дмитрий Пастер
О фильме: Витя теперь не просто лучший фермер Заполярья, но и счастливый отец. Однако насладиться семейной идиллией снова не получится. По личной просьбе губернатора Витя становится мэром Полярного. Витя и так не восторге от новой должности, а тут ещё выясняется, что предыдущий мэр оставил после себя многомиллионную дыру в городском бюджете. Витя хочет сложить с себя полномочия, но когда понимает, что перешёл дорогу влиятельному и нечистому на руку бизнесмену Ломаеву, то решает остаться на посту мэра Полярного, чтобы спасти его жителей от выселения из собственных домов. Но беда не приходит одна. В третьем сезоне Вите предстоит познакомиться с мамой Полины – преподавателем литературы на пенсии. Однако даже новый высокий пост не помогает Громову соответствовать высоким стандартам его тещи.
Качество: WEBRip
Видео: XviD, ~ 1600 Кбит/с, 720x400, 25 кадр/с
Аудио: AC3, 2 ch, 192 Кбит/с
Продолжительность: 16 x ~ 00:24:15
Перевод: Не требуется
Cубтитры: Нет

Скриншоты




MediaInfo

Общее
Полное имя : D:\films\Полярный .s03.2023.WEB-DLRip.Files-x\01. Полярный .s03.2023.WEB-DLRip.Files-x.avi
Формат : AVI
Формат/Информация : Audio Video Interleave
Настройки формата : BitmapInfoHeader / WaveFormatEx
Размер файла : 310 Мбайт
Продолжительность : 24 м. 15 с.
Общий поток : 1 784 Кбит/сек
Частота кадров : 25,000 кадров/сек
Программа кодирования : VirtualDubMod 1.5.10.3 | www.virtualdub-fr.org || (build 2550/release)
Библиотека кодирования : VirtualDubMod build 2550/release
Видео
Идентификатор : 0
Формат : MPEG-4 Visual
Профиль формата : Advanced Simple@L5
Настройки формата : BVOP1 / Custom Matrix
Параметр BVOP формата : 1
Параметр QPel формата : Нет
Параметр GMC формата : Без точки перехода
Параметр матрицы формата : Выборочная
Идентификатор кодека : XVID
Идентификатор кодека/Подсказка : XviD
Продолжительность : 24 м. 15 с.
Битрейт : 1 582 Кбит/сек
Ширина : 720 пикселей
Высота : 400 пикселей
Соотношение сторон : 16:9
Частота кадров : 25,000 кадров/сек
Цветовое пространство : YUV
Субдискретизация насыщенности : 4:2:0
Битовая глубина : 8 бит
Тип развёртки : Прогрессивная
Метод сжатия : С потерями
Бит/(Пиксели*Кадры) : 0.220
Размер потока : 275 Мбайт (89%)
Библиотека кодирования : XviD 73
Аудио
Идентификатор : 1
Формат : AC-3
Формат/Информация : Audio Coding 3
Коммерческое название : Dolby Digital
Идентификатор кодека : 2000
Продолжительность : 24 м. 15 с.
Вид битрейта : Постоянный
Битрейт : 192 Кбит/сек
Каналы : 2 канала
Channel layout : L R
Частота : 48,0 КГц
Частота кадров : 31,250 кадров/сек (1536 SPF)
Метод сжатия : С потерями
Размер потока : 33,3 Мбайт (11%)
Выравнивание : Разделение по промежуткам
Продолжительность промежутка : 40 мс. (1,00 видеокадр)
Время предзагрузки промежутка : 500 мс.
Service kind : Complete Main

Внимание! Раздача ведётся путём добавления новых серий

Раздача ведётся путём добавления новых серий, при каждом добавлении создаётся новый торрент. Чтобы начать докачку новой серии, пользователям необходимо сделать следующее:
- Остановить скачивание.
- Удалить старый торрент у себя из клиента (старые серии удалять не надо).
- Скачать новый торрент и запустить его у себя в клиенте вместо старого, при этом указать клиенту путь в старую папку куда и должно происходить скачивание новых серий.
Ваш клиент при этом должен произвести хеширование (проверку) старой папки (если не производит сам - помогите ему сделать это), и будет докачивать только те серии которых у вас ещё нет. Старые серии при этом не удаляются, а продолжают раздаваться!
Релиз от:

Release was prepared by RG Files-x

[Profile] [PM]
Display posts:    
Reply to topic

Current time is: 02-Mar 06:52

All times are UTC + 3



You cannot post new topics in this forum
You cannot reply to topics in this forum
You cannot edit your posts in this forum
You cannot delete your posts in this forum
You cannot vote in polls in this forum
You cannot attach files in this forum
You cannot download files in this forum