Суперниндзя [2 сезон: 1-12 выпуски из 12] (2023) WEB-DL 720p от Files-x

Reply to topic
 
Author Message

Серый1779 ®

Gender: Male

Longevity: 5 years 3 months

Posts: 3405

Location: Украина

Post 25-Nov-2023 19:28

[Quote]

Суперниндзя Год выпуска: 2023
Жанр: Cпopт, шoу
Выпущено: Россия, Шoу Пpoдakшн
Режиссер: Юpий Koндpaтюk
Akтёpы: Дмитpий Macлeнниkoв, Bacилий Apтeмьeв, Baлepия Acтaпoвa
Описание: 175 людeй co вceй cтpaны peшaют пoучacтвoвaть в эkcтpeмaльнoм шoу «Cупep ниндзя» нa CTC и пokaзaть, нa чтo oни cпocoбны. Oпытныe cпopтcмeны, нacтoящиe мacтepa, пokлoнниkи движeний «ниндзя» и пpocтыe peбятa вcтpeчaютcя в oднoм мecтe, чтoбы пoбeдить. Иx ждут гигaнтckиe тpaccы cлoжнoй koнcтpуkции, oбopудoвaнныe тpудными пpeпятcтвиями. Учacтниkи дoлжны пpeoдoлeть aттpakциoн c пpeгpaдaми и пoпутнo выпoлнить eщe oднo уcлoвиe для пpoxoждeния в cлeдующий туp – cнять cвeтящиecя koльцa. He пpoшeдшиe этo иcпытaниe oтceивaютcя и paзъeзжaютcя пo дoмaм, caмыe cильныe жe пpoдoлжaют cвoй путь k cупep финaлу. C kaждым этaпoм бopьбa будeт вce oжecтoчeннeй, a дoлгoждaннaя пoбeдa – ближe.
Качество: WEB-DL 720p
Видео: MPEG-4 AVC, ~ 2081 Кбит/с, 1280x720
Аудио: AC3, 2 ch, 192 Кбит/с
Продолжительность: 6 х ~ 02:37:00
Язык: Русский

Скриншоты



[url=https://fastpic.org/fullview/121/2023/0215/_ae31e2e4d6c72b50a06758c3633fbcc7.png.html]

MediaInfo

Общее
Уникальный идентификатор : 223603616800122642270660179849304922430 (0xA8387D78F445EACDA3BBCC81D068D93E)
Полное имя : C:\films\Суперниндзя.s02.2023.WEB-DL 720p.Files-x\03. Суперниндзя.s02.2023.WEB-DL 720p.Files-x.mkv
Формат : Matroska
Версия формата : Version 2
Размер файла : 2,80 Гбайт
Продолжительность : 2 ч. 57 м.
Общий поток : 2 263 Кбит/сек
Частота кадров : 25,000 кадров/сек
Дата кодирования : 2023-10-25 06:22:01 UTC
Программа кодирования : mkvmerge v7.8.0 ('River Man') 32bit built on Apr 3 2015 12:11:22
Библиотека кодирования : libebml v1.3.1 + libmatroska v1.4.2
Видео
Идентификатор : 1
Формат : AVC
Формат/Информация : Advanced Video Codec
Профиль формата : High@L4.1
Настройки формата : CABAC / 4 Ref Frames
Параметр CABAC формата : Да
Параметр RefFrames формата : 4 кадра
Параметр GOP формата : M=4, N=50
Идентификатор кодека : V_MPEG4/ISO/AVC
Продолжительность : 2 ч. 57 м.
Битрейт : 2 026 Кбит/сек
Ширина : 1 280 пикселей
Высота : 720 пикселей
Соотношение сторон : 16:9
Описание активного формата : Full frame 16:9 image
Режим частоты кадров : Постоянный
Частота кадров : 25,000 кадров/сек
Стандарт вещания : PAL
Цветовое пространство : YUV
Субдискретизация насыщенности : 4:2:0
Битовая глубина : 8 бит
Тип развёртки : Прогрессивная
Бит/(Пиксели*Кадры) : 0.088
Размер потока : 2,51 Гбайт (90%)
Default : Да
Forced : Нет
Цветовой диапазон : Limited
Основные цвета : BT.709
Характеристики трансфера : BT.709
Коэффициенты матрицы : BT.709
Аудио
Идентификатор : 2
Формат : AC-3
Формат/Информация : Audio Coding 3
Коммерческое название : Dolby Digital
Идентификатор кодека : A_AC3
Продолжительность : 2 ч. 57 м.
Вид битрейта : Постоянный
Битрейт : 192 Кбит/сек
Каналы : 2 канала
Channel layout : L R
Частота : 48,0 КГц
Частота кадров : 31,250 кадров/сек (1536 SPF)
Метод сжатия : С потерями
Размер потока : 243 Мбайт (8%)
Service kind : Complete Main
Default : Да
Forced : Нет

Внимание! Раздача ведётся путём добавления новых серий

Раздача ведётся путём добавления новых серий, при каждом добавлении создаётся новый торрент. Чтобы начать докачку новой серии, пользователям необходимо сделать следующее:
- Остановить скачивание.
- Удалить старый торрент у себя из клиента (старые серии удалять не надо).
- Скачать новый торрент и запустить его у себя в клиенте вместо старого, при этом указать клиенту путь в старую папку куда и должно происходить скачивание новых серий.
Ваш клиент при этом должен произвести хеширование (проверку) старой папки (если не производит сам - помогите ему сделать это), и будет докачивать только те серии которых у вас ещё нет. Старые серии при этом не удаляются, а продолжают раздаваться!
Релиз от:

Release was prepared by RG Files-x

Related releases "Суперниндзя" (1):
Added Topic title Size
25 Nov 23  Суперниндзя [1-6 выпуски из ??] (2023) WEB-DL 720p от Files-x 14.59 GB
Find all related releases Суперниндзя
[Profile] [PM]
Display posts:    
Reply to topic

Current time is: 02-Mar 06:50

All times are UTC + 3



You cannot post new topics in this forum
You cannot reply to topics in this forum
You cannot edit your posts in this forum
You cannot delete your posts in this forum
You cannot vote in polls in this forum
You cannot attach files in this forum
You cannot download files in this forum