Вы поете великолепно [1 сезон: 1-9 выпуск] (2023) WEBRip 1080p от Files-x

Reply to topic
 
Author Message

bond74 ®

Gender: Male

Longevity: 5 years 3 months

Posts: 2266

Post 29-Nov-2023 00:30

[Quote]

Вы поете великолепно Год выпуска: 2023
Жанр: ТВ-шоу, Игровой
Выпущено: Россия, ТНТ
В ролях: Тимур Батрутдинов, Ольга Серябкина, Юлия Ковальчук, Митя Фомин, Надежда Ангарская, Денис Клявер, Сергей Глушко, Наташа Королёва, Люся Чеботина, Алексей Чумаков, Юлианна Караулова, Михаил Полицеймако
Ведущий: Тимур Батрутдинов, Ольга Серябкина
Описание: В каждом выпуске шоу принимают участие два представителя шоу-бизнеса и 12 обычных людей, отобранных по результатам кастинга. Музыкально-игровое шоу, в котором команды под руководством звезд соревнуются за баллы в караоке и денежный приз. Каждый выпуск два звездных капитана в нескольких раундах будут набирать себе команды из незнакомцев. После этого участников ждет несколько выступлений, которые принесут им очки. В финале на сцену выйдут звездные капитаны. Главной интригой будет количество баллов на счетчике караоке. Команда, опередившая соперников по игровым очкам, и станет победителем.
Качество: WEBRip 1080p
Видео: MPEG-4 AVC, ~ 4500 Кбит/с, 1920x1072
Аудио: AC3, 2 ch, 192 Кбит/с
Продолжительность: 7 х ~ 01:10:15
Перевод: Не требуется
Субтитры: Нет

Скриншоты


MediaInfo

Уникальный идентификатор : 251342984528190606805409739263645154661 (0xBD16E5E4BBD6DD1CAD233370D64D7D65)
Полное имя : D:\films\Вы поете великолепно.2023.WEB-DL 1080p.Files-x\Смотреть «Вы поёте великолепно» 1 сезон 1 выпуск в хорошем качестве онлайн на сайте PREMIER.ONE_2.mkv
Формат : Matroska
Версия формата : Version 4
Размер файла : 2,30 Гбайт
Продолжительность : 1 ч. 10 м.
Режим общего битрейта : Переменный
Общий поток : 4 692 Кбит/сек
Частота кадров : 25,000 кадров/сек
Дата кодирования : 2023-11-26 19:04:48 UTC
Программа кодирования : mkvmerge v7.8.0 ('River Man') 32bit built on Apr 3 2015 12:11:22
Библиотека кодирования : libebml v1.3.1 + libmatroska v1.4.2
Видео
Идентификатор : 1
Формат : AVC
Формат/Информация : Advanced Video Codec
Профиль формата : High@L4.1
Настройки формата : CABAC / 4 Ref Frames
Параметр CABAC формата : Да
Параметр RefFrames формата : 4 кадра
Идентификатор кодека : V_MPEG4/ISO/AVC
Продолжительность : 1 ч. 10 м.
Вид битрейта : Переменный
Битрейт : 4 500 Кбит/сек
Ширина : 1 920 пикселей
Высота : 1 072 пикселя
Соотношение сторон : 16:9
Режим частоты кадров : Постоянный
Частота кадров : 25,000 кадров/сек
Цветовое пространство : YUV
Субдискретизация насыщенности : 4:2:0
Битовая глубина : 8 бит
Тип развёртки : Прогрессивная
Бит/(Пиксели*Кадры) : 0.087
Размер потока : 2,20 Гбайт (96%)
Default : Да
Forced : Нет
Цветовой диапазон : Limited
Основные цвета : BT.709
Характеристики трансфера : BT.709
Аудио
Идентификатор : 2
Формат : AC-3
Формат/Информация : Audio Coding 3
Коммерческое название : Dolby Digital
Идентификатор кодека : A_AC3
Продолжительность : 1 ч. 10 м.
Вид битрейта : Постоянный
Битрейт : 192 Кбит/сек
Каналы : 2 канала
Channel layout : L R
Частота : 48,0 КГц
Частота кадров : 31,250 кадров/сек (1536 SPF)
Метод сжатия : С потерями
Задержка видео : -120 мс.
Размер потока : 96,2 Мбайт (4%)
Service kind : Complete Main
Default : Да
Forced : Нет

Внимание! Раздача ведётся путём добавления новых серий

Раздача ведётся путём добавления новых серий, при каждом добавлении создаётся новый торрент. Чтобы начать докачку новой серии, пользователям необходимо сделать следующее:
- Остановить скачивание.
- Удалить старый торрент у себя из клиента (старые серии удалять не надо).
- Скачать новый торрент и запустить его у себя в клиенте вместо старого, при этом указать клиенту путь в старую папку куда и должно происходить скачивание новых серий.
Ваш клиент при этом должен произвести хеширование (проверку) старой папки (если не производит сам - помогите ему сделать это), и будет докачивать только те серии которых у вас ещё нет. Старые серии при этом не удаляются, а продолжают раздаваться!
Релиз от:
[Profile] [PM]
Display posts:    
Reply to topic

Current time is: 02-Mar 05:45

All times are UTC + 3



You cannot post new topics in this forum
You cannot reply to topics in this forum
You cannot edit your posts in this forum
You cannot delete your posts in this forum
You cannot vote in polls in this forum
You cannot attach files in this forum
You cannot download files in this forum